img image001 image001 image001 image001 image001 image001 image001 image001 image001 image001 image001 image001 image001 image001 image001

Planets Sun Sun Sun
Статистика раздачи
Автор: Снежана | Размер: 5.09 ГБ | Добавлен: 27 июл 2013
Раздают: 14    Качают: 8
Скачать торрент
Скачать торрент
Описание торрента

СообщениеДобавлено: 27 июл 2013 

[imgright]http://ecx.images-amazon.com/images/I/51vUSvO036L.jpg" />

Жанр: Мультфильм, Фэнтези, Боевик, Приключения, Семейный.
Год: 2004.
Студия: Walt Disney Pictures.
Страна: США.
Режиссер: Брэд Бёрд /Brad Bird/.
В ролях: Крэйг Т. Нельсон /Craig T. Nelson/, Холли Хантер /Holly Hunter/, Сэмюэл Л. Джексон /Samuel L. Jackson/, Джейсон Ли /Jason Lee/, Доминик Луи /Dominique Louis/, Тедди Ньютон /Teddy Newton/, Джин Синсир /Jean Sincere/, Илай Фучиле /Eli Fucile/, Маив Эндрюс /Maeve Andrews/, Уоллес Шоун /Wallace Shawn/.

Описание: История семьи супергероев, члены которой уже отошли от больших дел и предпочитают жить непримечательной жизнью обычных землян. В прошлом все они обладали сверхъестественными способностями и относительно легко справлялись с мировым злом.

Но в один прекрасный день папаше и его домочадцам приходится вновь облачиться в прорезиненные костюмы супергероев (а для этого нужно срочно сбросить лишние килограммы!) и в очередной раз спасти человечество от таинственного злодея...

*********** The Incredibles (2004) ***********

Release Date: 19.04.2011

Release Info:
File Name .....: Supersemeika.2004.DUALRUS.BDRip.720p.h264.AC3.-HQ-ViDEO.mkv
Author ........: GYN

Runtime .......: 01:55:25 min
Video Format ..: MKV, H.264 codec
Video Bitrate .: 4 476 kbps
Bits per Pixel : 0.272 bit/pixel
Resolution ....: 1 280 x 536
Aspect Ratio ..: 2.35:1
Framerate .....: 23.976 fps

Audio First....: Russian AC3 Dolby Digital; 384.00 kbps; 5.1 Ch; 48 kHz
Audio Second...: Russian AC3 Dolby Digital; 448.00 kbps; 5.1 Ch; 48 kHz
Subtitle.......: Russian, English.

File Size .....: 4.37 GB
Source.........: Blu-ray Disc



General
Complete name : Supersemeika.2004.DUALRUS.BDRip.720p.h264.AC3.-HQ-ViDEO.mkv
Format : Matroska
File size : 4.37 GiB
Duration : 1h 55mn
Overall bit rate : 5 416 Kbps
Movie name : The Incredibles (2004)
Encoded date : UTC 2011-04-19 08:58:35
Writing application : mkvmerge v3.3.0 ('Language') built on Mar 24 2010 14:59:24
Writing library : libebml v0.8.0 + libmatroska v0.9.0

Video
ID : 1
Format : AVC
Format/Info : Advanced Video Codec
Format profile : High@L4.1
Format settings, CABAC : Yes
Format settings, ReFrames : 6 frames
Codec ID : V_MPEG4/ISO/AVC
Duration : 1h 55mn
Bit rate mode : Variable
Bit rate : 4 476 Kbps
Width : 1 280 pixels
Height : 536 pixels
Display aspect ratio : 2.35:1
Frame rate : 23.976 fps
Color space : YUV
Chroma subsampling : 4:2:0
Bit depth : 8 bits
Scan type : Progressive
Bits/(Pixel*Frame) : 0.272
Stream size : 3.61 GiB (83%)
Title : Encoded by GYN

Audio #1
ID : 2
Format : AC-3
Format/Info : Audio Coding 3
Mode extension : CM (complete main)
Codec ID : A_AC3
Duration : 1h 55mn
Bit rate mode : Constant
Bit rate : 384 Kbps
Channel(s) : 6 channels
Channel positions : Front: L C R, Side: L R, LFE
Sampling rate : 48.0 KHz
Bit depth : 16 bits
Compression mode : Lossy
Stream size : 317 MiB (7%)
Title : DUB
Language : Russian

Audio #2
ID : 3
Format : AC-3
Format/Info : Audio Coding 3
Mode extension : CM (complete main)
Codec ID : A_AC3
Duration : 1h 55mn
Bit rate mode : Constant
Bit rate : 448 Kbps
Channel(s) : 6 channels
Channel positions : Front: L C R, Side: L R, LFE
Sampling rate : 48.0 KHz
Bit depth : 16 bits
Compression mode : Lossy
Stream size : 370 MiB (8%)
Title : AVO [Goblin]
Language : Russian

Text #1
ID : 4
Format : UTF-8
Codec ID : S_TEXT/UTF8
Codec ID/Info : UTF-8 Plain Text
Title : Normal
Language : Russian

Text #2
ID : 5
Format : UTF-8
Codec ID : S_TEXT/UTF8
Codec ID/Info : UTF-8 Plain Text
Title : Goblin
Language : Russian

Text #3
ID : 6
Format : UTF-8
Codec ID : S_TEXT/UTF8
Codec ID/Info : UTF-8 Plain Text
Language : English


Язык: Русский дублированный + Авторский перевод Гоблин + Русский профессиональный перевод Tycoon (448/Отдельно) + Английская дорожка (448/Отдельно).

Субтитры: Русские, Русские (Гоблин), Английские.

Скриншоты для оценки качества:




Релиз:


   Похожие торренты   Торрент   Размер 
В этой теме нет новых непрочитанных сообщений. Суперсемейка / The Incredibles (2004) BDRip от HQ-ViDEO

4 | 5

2.96 ГБ

В этой теме нет новых непрочитанных сообщений. Суперсемейка / The Incredibles (2004) BDRip 720p | D

565 | 32

2.73 ГБ

В этой теме нет новых непрочитанных сообщений. Суперсемейка / The Incredibles (2004) BDRip 720p от R.G. HD-Films | 60 fps

19 | 36

7.16 ГБ

В этой теме нет новых непрочитанных сообщений. Суперсемейка / The Incredibles (2004) BDRip 720p от Leonardo and Scarabey

644 | 32

2.99 ГБ

В этой теме нет новых непрочитанных сообщений. Суперсемейка / The Incredibles (2004) BDRip | КПК | D

384 | 14

469.29 МБ

В этой теме нет новых непрочитанных сообщений. Суперсемейка / The Incredibles (2004) BDRip-AVC | D

208 | 41

793.52 МБ

В этой теме нет новых непрочитанных сообщений. Суперсемейка / The Incredibles (2004) BDRip от HQCLUB

1461 | 57

2.18 ГБ




Вы не можете начинать темы
Вы не можете отвечать на сообщения
Вы не можете редактировать свои сообщения
Вы не можете удалять свои сообщения
Вы не можете добавлять вложения

Перейти:  
Для Мосгорсуда, Роскомнадзора и рекламодателей: mosgorsud-torrent[собачка]yandex.ru
 Вход
ppkBB3cker v.2 © 2008-2014 @ PPK
[ Time : 0.036s | 14 Queries | GZIP : On ]

Торрент трекер RUTOR.IN, Не можете зайти на rutor.org? Какой новый адрес рутор? Какое зеркало рутор? Не работает rutor.org и зеркала? Тогда наш торрент специально для вас. Rutor.in неофициальное зеркало rutor. В случае если у Вас заблокирован rutor или вдруг Вы не можете на него зайти, то Вы без труда сможете скачать бесплатно и без рекламы последние новинки кино, игр, сериалов и прочего у нас, на Rutor.in. Не нужно использовать прокси, чтобы зайти на рутор, достаточно воспользоваться нашим ресурсом. Все новые фильмы, игры, сериалы, книги и музыка за 2013 и 2014 годы через торрент бесплатно. Скачивайте фильмы в хорошем качестве, игры для пк, xbox, playstation без регистрации. У нас вы найдете новые Зарубежные сериалы и Русские сериалы 2013, 2014, 2015 годов. Оставайтесь с нами, качайте любимые фильмы, игры, сериалы, книги и музыку.