img image001 image001 image001 image001 image001 image001 image001 image001 image001 image001 image001 image001 image001 image001 image001

Planets Sun Sun Sun
Статистика раздачи
Автор: Снежана | Размер: 749.63 МБ | Добавлен: 27 июл 2013
Раздают: 99    Качают: 10
Скачать торрент
Скачать торрент
Описание торрента

СообщениеДобавлено: 27 июл 2013 

#77

Информация о фильме
Название: Анастасия
Оригинальное название: Anastasia
Год выхода: 1997
Жанр: мультфильм, мюзикл, драма, приключения, семейный
Режиссер: Дон Блат / Don Bluth, Гари Голдман / Gary Goldman
В ролях: Мег Райан, Джон Кьюсак, Келси Грэммер, Кристофер Ллойд, Хэнк Азария, Бернадетт Питерс, Кирстен Данст, Анджела Лэнсбери, Рик Джонс, Андреа Мартин

О фильме:
Анастасия — дочка последнего русского царя Николая, погубленного зловещим Распутиным. Ей удается спастись, добраться вместе с бабушкой до переполненного вокзала и… потеряться в толпе. Проходит десять лет. Анастасия стала взрослой красавицей и теперь хочет попасть в Париж. Сможет ли царевна осуществить задуманное? Ведь Распутин уже поднялся из своей могилы…

Страна: США
Студия: Fox Animation Studios
Продолжительность: 01:34:10
Перевод: Профессиональный (дублированный)

Файл
Кодек: XviD / MP3
Качество: HDRip
Видео: XviD, 688x288 (2.35:1), 23.976 fps, 975 Kbps (0.205 bit/pixel)
Звук: MP3, 48.0 KHz, 2 ch, 128 Kbps, CBR

General
Complete name : E:Anastasia_[Rutor.org].avi
Format : AVI
Format/Info : Audio Video Interleave
File size : 750 MiB
Duration : 1h 34mn
Overall bit rate : 1 113 Kbps
Director : Ронистекс
Writing application : VirtualDubModRus 1.5.10.2 (build 2540/release)

Video
ID : 0
Format : MPEG-4 Visual
Format profile : Advanced Simple@L5
Format settings, BVOP : 2
Format settings, QPel : No
Format settings, GMC : No warppoints
Format settings, Matrix : Default (H.263)
Muxing mode : Packed bitstream
Codec ID : XVID
Codec ID/Hint : XviD
Duration : 1h 34mn
Bit rate : 975 Kbps
Width : 688 pixels
Height : 288 pixels
Display aspect ratio : 2.35:1
Frame rate : 23.976 fps
Color space : YUV
Chroma subsampling : 4:2:0
Bit depth : 8 bits
Scan type : Progressive
Compression mode : Lossy
Bits/(Pixel*Frame) : 0.205
Stream size : 657 MiB (88%)
Writing library : XviD 1.2.1 (UTC 2008-12-04)

Audio
ID : 1
Format : MPEG Audio
Format version : Version 1
Format profile : Layer 3
Mode : Joint stereo
Mode extension : MS Stereo
Codec ID : 55
Codec ID/Hint : MP3
Duration : 1h 34mn
Bit rate mode : Constant
Bit rate : 128 Kbps
Channel(s) : 2 channels
Sampling rate : 48.0 KHz
Compression mode : Lossy
Stream size : 86.2 MiB (12%)
Alignment : Aligned on interleaves
Interleave, duration : 42 ms (1.00 video frame)
Interleave, preload duration : 504 ms
Writing library : LAME3.97




   Похожие торренты   Торрент   Размер 
В этой теме нет новых непрочитанных сообщений. Анастасия / Anastasia (1997) HDRip | КПК от Generalfilm

32 | 5

309.78 МБ

В этой теме нет новых непрочитанных сообщений. Анастасия / Anastasia (1997) HDRip от Scarabey | D

23 | 0

744.38 МБ

В этой теме нет новых непрочитанных сообщений. Анастасия / Anastasia (1997) HDRip от Scarabey | D

299 | 11

1.45 ГБ

В этой теме нет новых непрочитанных сообщений. Анастасия / Anastasia (1997) DVDRip

48 | 8

1.37 ГБ

В этой теме нет новых непрочитанных сообщений. Анастасия / Anastasia (1997) BDRip 720p

11 | 5

7.02 ГБ

В этой теме нет новых непрочитанных сообщений. Анастасия / Anastasia (1997) BDRip 1080p

66 | 10

4.37 ГБ

В этой теме нет новых непрочитанных сообщений. Анастасия / Anastasia (1997) BDRip от HQCLUB

1233 | 38

1.45 ГБ




Вы не можете начинать темы
Вы не можете отвечать на сообщения
Вы не можете редактировать свои сообщения
Вы не можете удалять свои сообщения
Вы не можете добавлять вложения

Перейти:  
Для Мосгорсуда, Роскомнадзора и рекламодателей: mosgorsud-torrent[собачка]yandex.ru
 Вход
ppkBB3cker v.2 © 2008-2014 @ PPK
[ Time : 0.046s | 15 Queries | GZIP : Off ]

cron