img image001 image001 image001 image001 image001 image001 image001 image001 image001 image001 image001 image001 image001 image001 image001

Planets Sun Sun Sun
Статистика раздачи
Автор: Снежана | Размер: 129.29 МБ | Добавлен: 27 июл 2013
Раздают: 0    Качают: 1
Скачать торрент
Скачать торрент
Описание торрента

СообщениеДобавлено: 27 июл 2013 

#77

Название: Пыхчево
Год выхода: 2010
Жанр: Анимационный, комедия
Режиссер: Ксения Самарина
В ролях: Денис Хорешко, Сергей Беляев, Антон Лапенко, Ice Man, Татьяна Сомова, Анастасия Сомова, Маша Яровая

Описание:
В небольшом городке Пыхчево завелся Свиной Грипп. Он ходит по улицам, пытается найти себе друзей, но на всех встречных чихает, от чего те как-то слишком быстро становятся не очень активными, да и вовсе на трупов больше похожими. Однако Свиной Грипп не сдается и идет дальше... Судьба всего города в руках ученого профессора Валерия Валерьевича, ведь только он сможет остановить похождения опасного зверя!

01 - Новогодняя серия
General
Complete name : C:pyhchevo.01.avi
Format : AVI
Format/Info : Audio Video Interleave
File size : 129 MiB
Duration : 15mn 0s
Overall bit rate : 1 205 Kbps
Writing application : VirtualDubMod 1.5.4.1 (build 2178/release)
Writing library : VirtualDubMod build 2178/release

Video
ID : 0
Format : MPEG-4 Visual
Format profile : Advanced Simple@L5
Format settings, BVOP : No
Format settings, QPel : No
Format settings, GMC : No warppoints
Format settings, Matrix : Custom
Codec ID : XVID
Codec ID/Hint : XviD
Duration : 15mn 0s
Bit rate : 1 070 Kbps
Width : 720 pixels
Height : 416 pixels
Display aspect ratio : 16:9
Frame rate : 25.000 fps
Color space : YUV
Chroma subsampling : 4:2:0
Bit depth : 8 bits
Scan type : Progressive
Compression mode : Lossy
Bits/(Pixel*Frame) : 0.143
Stream size : 115 MiB (89%)
Writing library : XviD 1.2.1 (UTC 2008-12-04)

Audio
ID : 1
Format : MPEG Audio
Format version : Version 1
Format profile : Layer 3
Mode : Joint stereo
Mode extension : MS Stereo
Codec ID : 55
Codec ID/Hint : MP3
Duration : 15mn 0s
Bit rate mode : Constant
Bit rate : 128 Kbps
Channel(s) : 2 channels
Sampling rate : 48.0 KHz
Compression mode : Lossy
Stream size : 13.7 MiB (11%)
Alignment : Aligned on interleaves
Interleave, duration : 80 ms (2.00 video frames)
Interleave, preload duration : 504 ms
Writing library : LAME3.98r
Encoding settings : -m j -V 4 -q 2 -lowpass 17 -b 128
Language : English


Страна: Россия
Продолжительность: 15 минут серия
Перевод: Профессиональный (многоголосый, закадровый) 2x2

Кодек: XviD
Качество: TVRip
Видео: 720x416 (1.73:1), 25 fps, XviD build 50 ~1069 kbps avg, 0.14 bit/pixel
Звук: 48 kHz, MPEG Layer 3, 2 ch, ~128.00 kbps avg



   Похожие торренты   Торрент   Размер 
В этой теме нет новых непрочитанных сообщений. Пыхчево [01х01-03 + пилотный выпуск] (2010-2011) WEB-DLRip от HitWay

17 | 2

316.63 МБ

В этой теме нет новых непрочитанных сообщений. Пыхчево [01х01-03 + пилотный выпуск] (2010-2011) WEB-DLRip от HitWay

6 | 2

279.7 МБ

В этой теме нет новых непрочитанных сообщений. Начинающие Копы / Rookie Blue [01x01-13] (2010) TVRip

5 | 3

5.07 ГБ

В этой теме нет новых непрочитанных сообщений. Остров / To Nisi [01x01-15 из 26] (2010-2011) TVRip | BaibaKo

164 | 14

10.19 ГБ

В этой теме нет новых непрочитанных сообщений. Японский, которого не знают японцы / Nihonjin no Shiranai Nihongo [01x01] (2010) TVRip от BTT-TEAM

0 | 2

406.43 МБ

В этой теме нет новых непрочитанных сообщений. Настоящие преступления с Афродитой Джонс / True Crime with Aphrodite Jones [01x01-10 из 10] (2010) TVRip от Files-x

0 | 1

6.05 ГБ

В этой теме нет новых непрочитанных сообщений. Неформат [01x01] (2014) TVRip

279 | 35

533.53 МБ




Вы не можете начинать темы
Вы не можете отвечать на сообщения
Вы не можете редактировать свои сообщения
Вы не можете удалять свои сообщения
Вы не можете добавлять вложения

Перейти:  
Для Мосгорсуда, Роскомнадзора и рекламодателей: mosgorsud-torrent[собачка]yandex.ru
 Вход
ppkBB3cker v.2 © 2008-2014 @ PPK
[ Time : 0.581s | 14 Queries | GZIP : Off ]

Торрент трекер RUTOR.IN, Не можете зайти на rutor.org? Какой новый адрес рутор? Какое зеркало рутор? Не работает rutor.org и зеркала? Тогда наш торрент специально для вас. Rutor.in неофициальное зеркало rutor. В случае если у Вас заблокирован rutor или вдруг Вы не можете на него зайти, то Вы без труда сможете скачать бесплатно и без рекламы последние новинки кино, игр, сериалов и прочего у нас, на Rutor.in. Не нужно использовать прокси, чтобы зайти на рутор, достаточно воспользоваться нашим ресурсом. Все новые фильмы, игры, сериалы, книги и музыка за 2013 и 2014 годы через торрент бесплатно. Скачивайте фильмы в хорошем качестве, игры для пк, xbox, playstation без регистрации. У нас вы найдете новые Зарубежные сериалы и Русские сериалы 2013, 2014, 2015 годов. Оставайтесь с нами, качайте любимые фильмы, игры, сериалы, книги и музыку.