img image001 image001 image001 image001 image001 image001 image001 image001 image001 image001 image001 image001 image001 image001 image001

Planets Sun Sun Sun
Статистика раздачи
Автор: Снежана | Размер: 4.94 ГБ | Добавлен: 27 июл 2013
Раздают: 29    Качают: 7
Скачать торрент
Скачать торрент
Описание торрента

СообщениеДобавлено: 27 июл 2013 

[imgright]http://ecx.images-amazon.com/images/I/51L9Ojo8jPL.jpg" />

Жанр: Анимационный, Приключения, Семейный.
Год: 2008.
Студия: Pixar Animation Studios.
Страна: США.
Режиссер: Эндрю Стэнтон /Andrew Stanton/.
Роли озвучивали: Бен Бертт /Ben Burtt/, Элисса Найт /Elissa Knight/, Джефф Гарлин /Jeff Garlin/, Фред Уиллард /Fred Willard/, Джон Ратценбергер /John Ratzenberger/, Кэти Наджими /Kathy Najimy/, Сигурни Уивер /Sigourney Weaver/.
Роли дублировали: Михаил Хрусталев, Андрей Лёвин, Марианна Мокшина, Сергей Русскин, Марк Макаренков, Михаил Щетинин, Людмила Безуглая, Елена Шульман, Станислав Концевич.

Описание: Друзей можно встретить даже между звезд.
Испокон веков сверкающие звезды наблюдают за кружением планет. На далекой Земле, среди пыли и мусора, на них в ответ смотрит маленький смешной робот, забытый сотни лет назад. Доброго и дружелюбного малыша зовут ВАЛЛ-И. Во всем огромном космосе у него нет друзей…
Но однажды прекрасный космический корабль приземляется на заброшенной планете. ВАЛЛ-И знакомится с Евой, современным, красивым роботом из глубин вселенной. Возможно, эта встреча навсегда изменит жизнь веселого коротышки и подарит ему настоящих друзей, которых он так долго ждал.

*********** WALL-E (2008) ***********

Release Date: 27.04.2011

Release Info:
File Name .....: Vall_I.2008.DUALRUS.BDRip.720p.h264.AC3.-HQ-ViDEO.mkv
Author ........: GYN

Runtime .......: 01:37:20 min
Video Format ..: MKV, H.264 codec
Video Bitrate .: 5 400 kbps
Bits per Pixel : 0.328 bit/pixel
Resolution ....: 1 280 x 536
Aspect Ratio ..: 2.35:1
Framerate .....: 23.976 fps

Audio First....: Russian AC3 Dolby Digital; 448.00 kbps; 5.1 Ch; 48 kHz
Audio Second...: Russian AC3 Dolby Digital; 448.00 kbps; 5.1 Ch; 48 kHz
Subtitle.......: Russian, English.

File Size .....: 4.37 GB
Source.........: Blu-ray Disc



General
Complete name : Vall_I.2008.DUALRUS.BDRip.720p.h264.AC3.-HQ-ViDEO.mkv
Format : Matroska
File size : 4.37 GiB
Duration : 1h 37mn
Overall bit rate : 6 424 Kbps
Movie name : WALL·E (2008)
Encoded date : UTC 2011-04-27 13:10:03
Writing application : mkvmerge v3.3.0 ('Language') built on Mar 24 2010 14:59:24
Writing library : libebml v0.8.0 + libmatroska v0.9.0

Video
ID : 1
Format : AVC
Format/Info : Advanced Video Codec
Format profile : High@L4.1
Format settings, CABAC : Yes
Format settings, ReFrames : 6 frames
Codec ID : V_MPEG4/ISO/AVC
Duration : 1h 37mn
Bit rate mode : Variable
Bit rate : 5 400 Kbps
Width : 1 280 pixels
Height : 536 pixels
Display aspect ratio : 2.35:1
Frame rate : 23.976 fps
Color space : YUV
Chroma subsampling : 4:2:0
Bit depth : 8 bits
Scan type : Progressive
Bits/(Pixel*Frame) : 0.328
Stream size : 3.67 GiB (84%)
Title : Encoded by GYN

Audio #1
ID : 2
Format : AC-3
Format/Info : Audio Coding 3
Mode extension : CM (complete main)
Codec ID : A_AC3
Duration : 1h 37mn
Bit rate mode : Constant
Bit rate : 448 Kbps
Channel(s) : 6 channels
Channel positions : Front: L C R, Side: L R, LFE
Sampling rate : 48.0 KHz
Bit depth : 16 bits
Compression mode : Lossy
Stream size : 312 MiB (7%)
Title : DUB
Language : Russian

Audio #2
ID : 3
Format : AC-3
Format/Info : Audio Coding 3
Mode extension : CM (complete main)
Codec ID : A_AC3
Duration : 1h 37mn
Bit rate mode : Constant
Bit rate : 448 Kbps
Channel(s) : 6 channels
Channel positions : Front: L C R, Side: L R, LFE
Sampling rate : 48.0 KHz
Bit depth : 16 bits
Compression mode : Lossy
Stream size : 312 MiB (7%)
Title : MVO
Language : Russian

Text #1
ID : 4
Format : UTF-8
Codec ID : S_TEXT/UTF8
Codec ID/Info : UTF-8 Plain Text
Language : Russian

Text #2
ID : 5
Format : UTF-8
Codec ID : S_TEXT/UTF8
Codec ID/Info : UTF-8 Plain Text
Language : English


Язык: Русский дублированный + Русский профессиональный перевод + Украинский дублированный (384/Отдельно) + Английская дорожка (448/Отдельно).

Субтитры: Русские, Английские.

Скриншоты для оценки качества:




Релиз:


   Похожие торренты   Торрент   Размер 
В этой теме нет новых непрочитанных сообщений. ВАЛЛ-И / WALL-E (2008) BDRip 720p от Filmrus

62 | 8

5.46 ГБ

В этой теме нет новых непрочитанных сообщений. ВАЛЛ·И / WALL·E (2008) BDRip 720p от NNNB | 60 fps

281 | 29

4.12 ГБ

В этой теме нет новых непрочитанных сообщений. ВАЛЛ·И / WALL·E (2008) BDRip 720p [Hi10P] от IIIKOJIO3ABP

473 | 12

2.68 ГБ

В этой теме нет новых непрочитанных сообщений. ВАЛЛ-И / WALL-E (2008) BDRip-720p | Дополнительные материалы

42 | 7

4.39 ГБ

В этой теме нет новых непрочитанных сообщений. ВАЛЛ·И / WALL·E (2008) BDRip 720p от HQCLUB | Лицензия

274 | 40

4.37 ГБ

В этой теме нет новых непрочитанных сообщений. ВАЛЛ·И / WALL·E (2008) BDRip 720p от Leonardo and Scarabey

959 | 55

2.36 ГБ

В этой теме нет новых непрочитанных сообщений. ВАЛЛ·И / WALL·E (2008) BDRip | КПК | D, P, A

425 | 28

468.66 МБ




Вы не можете начинать темы
Вы не можете отвечать на сообщения
Вы не можете редактировать свои сообщения
Вы не можете удалять свои сообщения
Вы не можете добавлять вложения

Перейти:  
Для Мосгорсуда, Роскомнадзора и рекламодателей: mosgorsud-torrent[собачка]yandex.ru
 Вход
ppkBB3cker v.2 © 2008-2014 @ PPK
[ Time : 0.023s | 14 Queries | GZIP : Off ]

Торрент трекер RUTOR.IN, Не можете зайти на rutor.org? Какой новый адрес рутор? Какое зеркало рутор? Не работает rutor.org и зеркала? Тогда наш торрент специально для вас. Rutor.in неофициальное зеркало rutor. В случае если у Вас заблокирован rutor или вдруг Вы не можете на него зайти, то Вы без труда сможете скачать бесплатно и без рекламы последние новинки кино, игр, сериалов и прочего у нас, на Rutor.in. Не нужно использовать прокси, чтобы зайти на рутор, достаточно воспользоваться нашим ресурсом. Все новые фильмы, игры, сериалы, книги и музыка за 2013 и 2014 годы через торрент бесплатно. Скачивайте фильмы в хорошем качестве, игры для пк, xbox, playstation без регистрации. У нас вы найдете новые Зарубежные сериалы и Русские сериалы 2013, 2014, 2015 годов. Оставайтесь с нами, качайте любимые фильмы, игры, сериалы, книги и музыку.