img image001 image001 image001 image001 image001 image001 image001 image001 image001 image001 image001 image001 image001 image001 image001

Planets Sun Sun Sun
Статистика раздачи
Автор: Снежана | Размер: 122.77 МБ | Добавлен: 27 июл 2013
Раздают: 9    Качают: 2
Скачать торрент
Скачать торрент
Описание торрента

СообщениеДобавлено: 27 июл 2013 

#77

Информация о фильме
Название: Южный парк
Оригинальное название: South Park
Год выхода: 2011
Жанр: Комедия, Мультипликация
Режиссер: Трей Паркер, Мэтт Стоун
В ролях: Мэт Стоун, Трэй Паркер, Мона Маршалл, Эйприл Стюарт, Вернон Четмэн, Илана Коон, Лиза Донован, Роберт Эрнст, Кэти Фэрис, Хитер Дженкинс, Себастьян Ю и другие

О фильме:
«Южный парк» (англ. South Park) — американский мультсериал, созданный Треем Паркером и Мэттом Стоуном. Иногда название переводится также как «Саут-Парк» или «Саус-Парк». Выпускается кабельным телеканалом «Comedy Central» с 1997 года. Основу сюжета составляют приключения четырёх мальчиков и их друзей, живущих в маленьком городке Саут-Парк, штат Колорадо. Сериал высмеивает недостатки американской культуры и текущие мировые события, а также подвергает критике множество глубоких убеждений и табу посредством пародии и чёрного юмора. «Южный парк» выходит поздно вечером и позиционируется как мультфильм для взрослых...

General
Unique ID : 204741145273325753396860478098620158310 (0x9A07B5D3240E060384D0BA315D921166)
Complete name : D:ВидеоМультсериалыSouth ParkSeason 14 [VO-Production] BDRip 720pS14 Deleted Scenes.mkv
Format : Matroska
File size : 123 MiB
Duration : 6mn 11s
Overall bit rate : 2 775 Kbps
Encoded date : UTC 2011-04-30 18:53:04
Writing application : mkvmerge v4.0.0 ('The Stars were mine') сборка от Jun 6 2010 16:18:42
Writing library : libebml v1.0.0 + libmatroska v1.0.0

Video
ID : 1
Format : AVC
Format/Info : Advanced Video Codec
Format profile : High@L3.1
Format settings, CABAC : Yes
Format settings, ReFrames : 3 frames
Codec ID : V_MPEG4/ISO/AVC
Duration : 6mn 11s
Bit rate : 2 464 Kbps
Width : 1 280 pixels
Height : 720 pixels
Display aspect ratio : 16:9
Frame rate : 23.976 fps
Color space : YUV
Chroma subsampling : 4:2:0
Bit depth : 8 bits
Scan type : Progressive
Bits/(Pixel*Frame) : 0.112
Stream size : 109 MiB (89%)
Language : English

Audio
ID : 2
Format : AC-3
Format/Info : Audio Coding 3
Mode extension : CM (complete main)
Codec ID : A_AC3
Duration : 6mn 11s
Bit rate mode : Constant
Bit rate : 256 Kbps
Channel(s) : 2 channels
Channel positions : Front: L R
Sampling rate : 48.0 KHz
Bit depth : 16 bits
Compression mode : Lossy
Delay relative to video : 5ms
Stream size : 11.3 MiB (9%)
Title : AC3 2.0 256 Kbps [Vo-Production]
Language : Russian


Страна: США
Студия: Comedy Central
Продолжительность: 00:06:11
Перевод: Профессиональный (многоголосый, закадровый) - VO-Production

Файл
Кодек: AVC
Качество: BDRip 720p
Видео: AVC 1280x720 (16:9) ~3200 Kbps 23.976 fps
Звук: RUS AC3 16bit/48000Hz 2ch (Stereo) 256kbps - Vo-Production

Релиз от:



   Похожие торренты   Торрент   Размер 
В этой теме нет новых непрочитанных сообщений. Южный Парк / South Park [S15] (2011) HDTV 720p

13 | 6

6.62 ГБ

В этой теме нет новых непрочитанных сообщений. Южный Парк / South Park [15x01-07 из 14] (2011) WEB-DL 720p | VO-Production

0 | 3

3.55 ГБ

В этой теме нет новых непрочитанных сообщений. Южный Парк / South Park [15x01] (2011) WEB-DL 720p | VO-Production

1 | 2

569.42 МБ

В этой теме нет новых непрочитанных сообщений. Южный парк - South Park [S08-14] WEB-DLRip-BDRip 720p

25 | 76

30.4 ГБ

В этой теме нет новых непрочитанных сообщений. Южный Парк / South Park [S13] (2009) BDRip 720p

29 | 13

6.8 ГБ

В этой теме нет новых непрочитанных сообщений. Саут Парк / Южный Парк / South Park + OST [S01-12] (1997-2008) DVDRip, BDRip

12 | 68

53.73 ГБ

В этой теме нет новых непрочитанных сообщений. Южный Парк / South Park [14x01-04,07-14] (2011) WEB-DLRip

23 | 7

3.1 ГБ




Вы не можете начинать темы
Вы не можете отвечать на сообщения
Вы не можете редактировать свои сообщения
Вы не можете удалять свои сообщения
Вы не можете добавлять вложения

Перейти:  
Для Мосгорсуда, Роскомнадзора и рекламодателей: mosgorsud-torrent[собачка]yandex.ru
 Вход
ppkBB3cker v.2 © 2008-2014 @ PPK
[ Time : 0.025s | 16 Queries | GZIP : Off ]

Торрент трекер RUTOR.IN, Не можете зайти на rutor.org? Какой новый адрес рутор? Какое зеркало рутор? Не работает rutor.org и зеркала? Тогда наш торрент специально для вас. Rutor.in неофициальное зеркало rutor. В случае если у Вас заблокирован rutor или вдруг Вы не можете на него зайти, то Вы без труда сможете скачать бесплатно и без рекламы последние новинки кино, игр, сериалов и прочего у нас, на Rutor.in. Не нужно использовать прокси, чтобы зайти на рутор, достаточно воспользоваться нашим ресурсом. Все новые фильмы, игры, сериалы, книги и музыка за 2013 и 2014 годы через торрент бесплатно. Скачивайте фильмы в хорошем качестве, игры для пк, xbox, playstation без регистрации. У нас вы найдете новые Зарубежные сериалы и Русские сериалы 2013, 2014, 2015 годов. Оставайтесь с нами, качайте любимые фильмы, игры, сериалы, книги и музыку.