img image001 image001 image001 image001 image001 image001 image001 image001 image001 image001 image001 image001 image001 image001 image001

Planets Sun Sun Sun
Статистика раздачи
Автор: Снежана | Размер: 4.37 ГБ | Добавлен: 27 июл 2013
Раздают: 6    Качают: 2
Скачать торрент
Скачать торрент
Описание торрента

СообщениеДобавлено: 27 июл 2013 

[imgright]http://ecx.images-amazon.com/images/I/51ZZuyFA3nL.jpg" />

Жанр: Анимационный, Приключения, Семейный.
Год: 2008.
Студия: Futurikon, Luxanimation, Trixter Film.
Страна: Аргентина, Австралия, Бельгия, Италия, США, Испания, Великобритания, Франция, Германия, Люксембург.
Режиссер: Гийом Ивернель /Guillaume Ivernel/, Артур Квак /Arthur Qwak/.
Роли озвучивали: Винсент Линдон /Vincent Lindon/, Патрик Тимсит /Patrick Timsit/, Филипп Наон /Philippe Nahon/, Аманда Лир /Amanda Lear/, Мари Дрион /Marie Drion/, Джереми Превост /Jeremy Prevost/, Жан-Марк Лентретьен /Jean-Marc Lentretien/, Елиас Элиот /Elias Eliot/.
Роли дублировали: Пётр Иващенко, Ольга Шорохова.

Описание: Этот прекрасный и затерянный мир - мириады маленьких солнечных островов, парящих в пространстве и соединенных между собой волшебными мостами.
Жители этой доброй вселенной уже давно позабыли правило: "Съешь врага первым или он съест тебя". До тех пор, пока в этот мир не вторглись ужасные и ненасытные существа - Драконы! Маленькая Зоуи взялась помочь своему дядюшке Лорду Арнольду избавить свой народ от злобных чудищ. Она, как ей казалось, нашла отличных помощников - отважных охотников на драконов, настоящих героев Гвиздо и Лин-Чу. На самом деле хитрый Лин-Чу просто позарился на денежки Лорда Арнольда, и не стал разубеждать девчушку в своих способностях, чтобы оставаться рядом. Команда отправляется в очень опасное путешествие до самого края Вселенной, где обитает самый кровожадный монстр на Земле - ужасающий "Пожиратель".

*********** Chasseurs de Dragons (2008) ***********

Release Date: 26.04.2011

Release Info:
File Name .....: Ohotniki.Na.Drakonov.2008.DUAL.BDRip.720p.h264.AC3.-HQ-ViDEO.mkv
Author ........: GYN

Runtime .......: 01:21:59 min
Video Format ..: MKV, H.264 codec
Video Bitrate .: 6 578 kbps
Bits per Pixel : 0.298 bit/pixel
Resolution ....: 1 280 x 720
Aspect Ratio ..: 1.78:1
Framerate .....: 23.976 fps

Audio First....: Russian AC3 Dolby Digital; 448.00 kbps; 5.1 Ch; 48 kHz
Audio Second...: English AC3 Dolby Digital; 448.00 kbps; 5.1 Ch; 48 kHz
Subtitle.......: English.

File Size .....: 4.37 GB
Source.........: Blu-ray Disc



General
Complete name : Ohotniki.Na.Drakonov.2008.DUAL.BDRip.720p.h264.AC3.-HQ-ViDEO.mkv
Format : Matroska
File size : 4.37 GiB
Duration : 1h 21mn
Overall bit rate : 7 626 Kbps
Movie name : Chasseurs de dragons (2008)
Encoded date : UTC 2011-04-26 06:47:45
Writing application : mkvmerge v3.3.0 ('Language') built on Mar 24 2010 14:59:24
Writing library : libebml v0.8.0 + libmatroska v0.9.0

Video
ID : 1
Format : AVC
Format/Info : Advanced Video Codec
Format profile : High@L4.1
Format settings, CABAC : Yes
Format settings, ReFrames : 6 frames
Codec ID : V_MPEG4/ISO/AVC
Duration : 1h 21mn
Bit rate mode : Variable
Bit rate : 6 578 Kbps
Width : 1 280 pixels
Height : 720 pixels
Display aspect ratio : 16:9
Frame rate : 23.976 fps
Color space : YUV
Chroma subsampling : 4:2:0
Bit depth : 8 bits
Scan type : Progressive
Bits/(Pixel*Frame) : 0.298
Stream size : 3.77 GiB (86%)
Title : Encoded by GYN

Audio #1
ID : 2
Format : AC-3
Format/Info : Audio Coding 3
Mode extension : CM (complete main)
Codec ID : A_AC3
Duration : 1h 21mn
Bit rate mode : Constant
Bit rate : 448 Kbps
Channel(s) : 6 channels
Channel positions : Front: L C R, Side: L R, LFE
Sampling rate : 48.0 KHz
Bit depth : 16 bits
Compression mode : Lossy
Stream size : 263 MiB (6%)
Title : DUB
Language : Russian

Audio #2
ID : 3
Format : AC-3
Format/Info : Audio Coding 3
Mode extension : CM (complete main)
Codec ID : A_AC3
Duration : 1h 21mn
Bit rate mode : Constant
Bit rate : 448 Kbps
Channel(s) : 6 channels
Channel positions : Front: L C R, Side: L R, LFE
Sampling rate : 48.0 KHz
Bit depth : 16 bits
Compression mode : Lossy
Stream size : 263 MiB (6%)
Language : English

Text
ID : 4
Format : UTF-8
Codec ID : S_TEXT/UTF8
Codec ID/Info : UTF-8 Plain Text
Language : English


Язык: Русский дублированный + Английская дорожка.

Субтитры: Английские.

Скриншоты для оценки качества:




Релиз:


   Похожие торренты   Торрент   Размер 
В этой теме нет новых непрочитанных сообщений. Охотники на драконов / Chasseurs de dragons (2008) BDRip от HQ-ViDEO

132 | 5

1.46 ГБ

В этой теме нет новых непрочитанных сообщений. Охотники на драконов / Chasseurs de dragons (2008) BDRip 720p от Freeisland

3 | 1

4.37 ГБ

В этой теме нет новых непрочитанных сообщений. Охотники на драконов / Dragon Hunters / Chasseurs de dragons (2008) BDRip 720p от ExKinoRay

40 | 7

1.07 ГБ

В этой теме нет новых непрочитанных сообщений. Охотники на драконов / Chasseurs de dragons (2008) BDRip 720p от Leonardo and Scarabey | Лицензия

161 | 23

2.73 ГБ

В этой теме нет новых непрочитанных сообщений. Охотники на драконов / Chasseurs de dragons (2008) BDRip-AVC | iPad

23 | 4

1.86 ГБ

В этой теме нет новых непрочитанных сообщений. Охотники на драконов / Chasseurs de dragons (2008) BDRip 1080p

74 | 5

4.37 ГБ

В этой теме нет новых непрочитанных сообщений. Охотники на драконов / Chasseurs de dragons (2008) BDRip от ExKinoRay

3 | 5

1.4 ГБ




Вы не можете начинать темы
Вы не можете отвечать на сообщения
Вы не можете редактировать свои сообщения
Вы не можете удалять свои сообщения
Вы не можете добавлять вложения

Перейти:  
Для Мосгорсуда, Роскомнадзора и рекламодателей: mosgorsud-torrent[собачка]yandex.ru
 Вход
ppkBB3cker v.2 © 2008-2014 @ PPK
[ Time : 0.022s | 15 Queries | GZIP : Off ]

Торрент трекер RUTOR.IN, Не можете зайти на rutor.org? Какой новый адрес рутор? Какое зеркало рутор? Не работает rutor.org и зеркала? Тогда наш торрент специально для вас. Rutor.in неофициальное зеркало rutor. В случае если у Вас заблокирован rutor или вдруг Вы не можете на него зайти, то Вы без труда сможете скачать бесплатно и без рекламы последние новинки кино, игр, сериалов и прочего у нас, на Rutor.in. Не нужно использовать прокси, чтобы зайти на рутор, достаточно воспользоваться нашим ресурсом. Все новые фильмы, игры, сериалы, книги и музыка за 2013 и 2014 годы через торрент бесплатно. Скачивайте фильмы в хорошем качестве, игры для пк, xbox, playstation без регистрации. У нас вы найдете новые Зарубежные сериалы и Русские сериалы 2013, 2014, 2015 годов. Оставайтесь с нами, качайте любимые фильмы, игры, сериалы, книги и музыку.