img image001 image001 image001 image001 image001 image001 image001 image001 image001 image001 image001 image001 image001 image001 image001

Planets Sun Sun Sun
Статистика раздачи
Автор: Снежана | Размер: 2.18 ГБ | Добавлен: 27 июл 2013
Раздают: 1    Качают: 1
Скачать торрент
Скачать торрент
Описание торрента

СообщениеДобавлено: 27 июл 2013 

Приключения Флика / A Bug's Life (1998) BDRip-AVC
от DHT-Movies

#77

Информация о фильме
Название: Приключения Флика
Оригинальное название: A Bug's Life
Год выхода: 1998
Жанр: Мультипликация
Режиссер: Джон Лассетер, Эндрю Стэнтон
В ролях: Дэйв Фоли, Кевин Спейси, Джулия Луис-Дрейфус, Хайден Панеттьери, Филлис Даллер, Ричард Кайнд, Дэвид Хайд Пирс, Джо Рэнфт, Денис Лири, Джонатан Харрис, Мэдлин Кан, Бонни Хант, Джон Ратценбергер

О фильме:
Действия картины происходят на острове, в колонии муравьев. Среди них особо выделяется изобретатель Флик. Муравьи занимались тем, что собирали дань в виде еды для кузнечиков. Однажды Флик случайно сбросил в воду всю собранную в виде дани еду. Кузнечики в результате чего увеличили дань. Флик решил противостоять этому. Так началась освободительная борьба муравьев за независимость.

Страна: США
Продолжительность: 01:34:53
Перевод: Дублированный


Релиз от: | by ATi


Файл
Кодек: h.264
Качество: BDRip-AVC
Видео: h.264@L4.1, 1104x472 , 23.976 fps, ~2780 kbps avg, 0.223 bit/pixel.
Звук: 48 kHz, AC3 Dolby Digital, 3/2 (L,C,R,l,r) + LFE ch, ~448.00 kbps avg
Субтитры: Отсутствуют



General
Format : Matroska
File size : 2.18 GiB
Duration : 1h 34mn
Overall bit rate : 3 294 Kbps
Writing application : mkvmerge v4.6.0 ('Still Crazy After All These Years') ñáîðêà îò Apr 1 2011 21:01:49
Writing library : libebml v1.2.0 + libmatroska v1.1.0
Video #1
ID : 1
Format : AVC
Format/Info : Advanced Video Codec
Format profile : High@L4.1
Format settings, CABAC : Yes
Format settings, ReFrames : 7 frames
Muxing mode : Container profile=Unknown@4.1
Codec ID : V_MPEG4/ISO/AVC
Duration : 1h 34mn
Bit rate : 2 780 Kbps
Width : 1 104 pixels
Height : 472 pixels
Display aspect ratio : 2.35:1
Frame rate : 23.976 fps
Resolution : 24 bits
Colorimetry : 4:2:0
Scan type : Progressive
Bits/(Pixel*Frame) : 0.223
Stream size : 1.84 GiB (84%)
Writing library : x264 core 115 r1937 aa21558
Encoding settings : cabac=1 / ref=7 / deblock=1:-2:-2 / analyse=0x3:0x113 / me=umh / subme=9 / psy=1 / psy_rd=1.00:0.00 / mixed_ref=1 / me_range=32 / chroma_me=1 / trellis=2 / 8x8dct=1 / cqm=0 / deadzone=21,11 / fast_pskip=1 / chroma_qp_offset=-2 / threads=6 / sliced_threads=0 / nr=0 / decimate=1 / interlaced=0 / bluray_compat=0 / constrained_intra=0 / bframes=7 / b_pyramid=2 / b_adapt=2 / b_bias=0 / direct=1 / weightb=1 / open_gop=0 / weightp=2 / keyint=250 / keyint_min=23 / scenecut=40 / intra_refresh=0 / rc_lookahead=40 / rc=2pass / mbtree=1 / bitrate=2845 / ratetol=1.0 / qcomp=0.60 / qpmin=0 / qpmax=69 / qpstep=4 / cplxblur=20.0 / qblur=0.5 / ip_ratio=1.40 / aq=1:1.00
Audio #2
ID : 2
Format : AC-3
Format/Info : Audio Coding 3
Codec ID : A_AC3
Duration : 1h 34mn
Bit rate mode : Constant
Bit rate : 448 Kbps
Channel(s) : 6 channels
Channel positions : Front: L C R, Surround: L R, LFE
Sampling rate : 48.0 KHz
Stream size : 304 MiB (14%)



   Похожие торренты   Торрент   Размер 
В этой теме нет новых непрочитанных сообщений. Приключения Флика / A Bug's Life (1998) BDRip от HQ-ViDEO

23 | 6

1.71 ГБ

В этой теме нет новых непрочитанных сообщений. Приключения Флика / A Bug's Life (1998) BDRip 1080p

91 | 6

4.37 ГБ

В этой теме нет новых непрочитанных сообщений. Приключения Флика / Жизнь жуков / A Bug's Life (1998) BDRip от HQCLUB

6 | 4

2.9 ГБ

В этой теме нет новых непрочитанных сообщений. Жизнь жуков / Приключения Флика / A Bug's Life (1998) BDRip от ExKinoRay

10 | 2

1.45 ГБ

В этой теме нет новых непрочитанных сообщений. A Bug's Life / Приключения Флика / Жизнь жуков (1998) BDRip 720p от HDClub | D, 2 x P, P2, A

49 | 9

4.38 ГБ

В этой теме нет новых непрочитанных сообщений. Приключения Флика / Жизнь жуков / A Bug's Life (1998) BDRip *RERip* от HELLYWOOD

378 | 12

1.45 ГБ

В этой теме нет новых непрочитанных сообщений. Приключения Флика / Жизнь жуков / A Bug's Life (1998) BDRip 720p от Leonardo and Scarabey

198 | 32

2.79 ГБ




Вы не можете начинать темы
Вы не можете отвечать на сообщения
Вы не можете редактировать свои сообщения
Вы не можете удалять свои сообщения
Вы не можете добавлять вложения

Перейти:  
Для Мосгорсуда, Роскомнадзора и рекламодателей: mosgorsud-torrent[собачка]yandex.ru
 Вход
ppkBB3cker v.2 © 2008-2014 @ PPK
[ Time : 0.025s | 15 Queries | GZIP : Off ]

cron