img image001 image001 image001 image001 image001 image001 image001 image001 image001 image001 image001 image001 image001 image001 image001

Planets Sun Sun Sun
Статистика раздачи
Автор: Снежана | Размер: 3.1 ГБ | Добавлен: 27 июл 2013
Раздают: 23    Качают: 7
Скачать торрент
Скачать торрент
Описание торрента

СообщениеДобавлено: 27 июл 2013 

#77

Информация о фильме
Название: Южный Парк
Оригинальное название: South Park
Год выхода: 2011
Жанр: Мультсериал, комедия
Режиссер: Трей Паркер, Эрик Стоф, Мэтт Стоун
В ролях: Трей Паркер, Мэтт Стоун, Мона Маршалл, Элиза Шнайдер, Эйприл Стюарт, Дженнифер Хауэлл, Мэри Кэй Бергман, Эдриан Бирд, Кайл Маккаллок

О фильме:
South Park это сериал про четверых маленьких мальчиков - Эрика Картмэна, Стэна Марша , Кайла Брофловски , и Кенни МакКормика . Картмэн - толстый, как его и называют, Кенни очень беден, Кайл - еврейский мальчик, а Стэн обычный американский парнишка живущий в классической американской семье.
Шоу сконцентрировано на событиях происходящих в мире, и переводит их в юмор, как пример - война в Ираке, проблемы с родителями. South Park - это шоу полное ругательств и туалетного юмора.

Внимание!
5 и 6 серии были запрещены к показу во многих странах мира, в том числе и в России. Причина этому - стеб над Мухаммедом в сериях. Подробнее можно прочитать тут

1401 - Сексуальное лечение / Sexual Healing
1402 - История о Скроти МакБугерболлзе / The Tale of Scrotie McBoogerballs
1403 - Лекарственный жареный цыпленок / Medicinal Fried Chicken
1404 - У вас 0 друзей / You have 0 Friends
1405 - 200
1406 - 201
1407 - Хромое лето / Crippled Summer
1408 - Бедный и глупый / Poor and Stupid
1409 - Это Джерси / It's a Jersey thing
1410 - Insheeption
1411 - Coon 2
1412 - Mysterion Rises
1413 - Coon Vs. Coon & Friends
1414 - Creme Fraiche
General
Complete name : D:South Park - Season 14 WEB-DLRip (2x2)South.Park.S14E01.Sexual.Healing.WEB-DLRip.avi
Format : AVI
Format/Info : Audio Video Interleave
File size : 274 MiB
Duration : 22mn 10s
Overall bit rate : 1 725 Kbps
Writing application : VirtualDubMod 1.5.10.2 (build 2542/release)
Writing library : VirtualDubMod build 2542/release

Video
ID : 0
Format : MPEG-4 Visual
Format profile : Advanced Simple@L5
Format settings, BVOP : 1
Format settings, QPel : No
Format settings, GMC : No warppoints
Format settings, Matrix : Default (MPEG)
Codec ID : XVID
Codec ID/Hint : XviD
Duration : 22mn 10s
Bit rate : 1 295 Kbps
Width : 720 pixels
Height : 400 pixels
Display aspect ratio : 16:9
Frame rate : 23.976 fps
Color space : YUV
Chroma subsampling : 4:2:0
Bit depth : 8 bits
Scan type : Progressive
Compression mode : Lossy
Bits/(Pixel*Frame) : 0.188
Stream size : 205 MiB (75%)
Writing library : XviD 1.2.1 (UTC 2008-12-04)

Audio #1
ID : 1
Format : AC-3
Format/Info : Audio Coding 3
Mode extension : CM (complete main)
Codec ID : 2000
Duration : 22mn 10s
Bit rate mode : Constant
Bit rate : 256 Kbps
Channel(s) : 2 channels
Channel positions : Front: L R
Sampling rate : 48.0 KHz
Bit depth : 16 bits
Compression mode : Lossy
Stream size : 40.6 MiB (15%)
Alignment : Split accross interleaves
Interleave, duration : 42 ms (1.00 video frame)
Interleave, preload duration : 500 ms

Audio #2
ID : 2
Format : AC-3
Format/Info : Audio Coding 3
Mode extension : CM (complete main)
Codec ID : 2000
Duration : 22mn 10s
Bit rate mode : Constant
Bit rate : 160 Kbps
Channel(s) : 2 channels
Channel positions : Front: L R
Sampling rate : 48.0 KHz
Bit depth : 16 bits
Compression mode : Lossy
Stream size : 25.4 MiB (9%)
Alignment : Split accross interleaves
Interleave, duration : 42 ms (1.00 video frame)
Interleave, preload duration : 500 ms


Страна: США
Продолжительность: ~ 22 минута
Перевод: Профессиональный (многоголосый, закадровый) 2x2

Файл
Кодек: Xvid
Качество: WEB-DLRip
Видео: Xvid 720x400 23.98fps 1 295 Kbps
Звук:
русская дорожка: Dolby AC3 48000Hz stereo 256kbps
оригинал: Dolby AC3 48000Hz stereo 160kbps



Релиз от:



   Похожие торренты   Торрент   Размер 
В этой теме нет новых непрочитанных сообщений. Южный Парк / South Park [15x01-07 из 14] (2011) WEB-DLrip-AVC | VO-Production

0 | 3

821.08 МБ

В этой теме нет новых непрочитанных сообщений. Южный Парк / South Park [15x01-07 из 14] (2011) WEB-DLrip | VO-Production

0 | 12

1.43 ГБ

В этой теме нет новых непрочитанных сообщений. Южный Парк / South Park [S15] (2011) HDTVRip, WEB-DLRip | Кубик в Кубе

73 | 11

2.71 ГБ

В этой теме нет новых непрочитанных сообщений. Южный Парк / South Park [S14] (2010) WEB-DLRip

138 | 12

2.83 ГБ

В этой теме нет новых непрочитанных сообщений. Южный парк - South Park [S08-14] WEB-DLRip-BDRip 720p

25 | 76

30.4 ГБ

В этой теме нет новых непрочитанных сообщений. Южный Парк / South Park [S07] (2003) WEB-DLRip-AVC от Youtracker | MTV

28 | 5

2.9 ГБ

В этой теме нет новых непрочитанных сообщений. Южный Парк / South Park [S08] (2004) WEB-DLRip-AVC от Youtracker | MTV

37 | 6

2.72 ГБ




Вы не можете начинать темы
Вы не можете отвечать на сообщения
Вы не можете редактировать свои сообщения
Вы не можете удалять свои сообщения
Вы не можете добавлять вложения

Перейти:  
Для Мосгорсуда, Роскомнадзора и рекламодателей: mosgorsud-torrent[собачка]yandex.ru
 Вход
ppkBB3cker v.2 © 2008-2014 @ PPK
[ Time : 0.042s | 15 Queries | GZIP : Off ]

cron