img image001 image001 image001 image001 image001 image001 image001 image001 image001 image001 image001 image001 image001 image001 image001

Planets Sun Sun Sun
Статистика раздачи
Автор: Снежана | Размер: 742.81 МБ | Добавлен: 27 июл 2013
Раздают: 15    Качают: 3
Скачать торрент
Скачать торрент
Описание торрента

СообщениеДобавлено: 27 июл 2013 

#77

Информация о фильме
Название: Горбун из Нотр Дама
Оригинальное название: The Hunchback of Notre Dame
Год выхода: 1996
Жанр: мультфильм, мюзикл, драма, мелодрама, семейный
Режиссер: Гари Труздейл / Gary Trousdale , Кирк Уайз / Kirk Wise
Роли озвучивают: Юрий Мазихин (Хьюго), Виктор Добронравов (Квазимодо), Игорь Балалаев (Фролло), Александр Маракулин (Виктор), Екатерина Гусева (Эсмеральда).

О фильме:
Юная цыганка Эсмеральда зарабатывает на жизнь танцами. У нее есть друзья, но недоброжелатели столь могущественны, что Эсмеральда попадает в тюрьму. Звонарь Квазимодо устраивает девушке побег. А потом спасает ее, когда ослепленный ненавистью епископ Фролло пытается сам расправиться с ней. Этот мультфильм, в отличии от известного романа В. Гюго, кончается счастливо для главных героев.

Страна: США
Студия: Walt Disney Feature Animation
Продолжительность: 01:30:47
Перевод: Профессиональный (дублированный) [Дубляж Первого канала]

Файл
Кодек: XviD / MP3
Качество: HDTVRip
Видео: XviD, 688x384 (16:9), 23.976 fps, 1 045 Kbps (0.165 bit/pixel)
Звук: MP3, 48.0 KHz, 1 ch, 96.0 Kbps, CBR

General
Format : AVI
Format/Info : Audio Video Interleave
File size : 743 MiB
Duration : 1h 30mn
Overall bit rate : 1 144 Kbps
Writing application : VirtualDubMod 1.5.10.2 (build 2540/release)
Writing library : VirtualDubMod build 2540/release

Video
ID : 0
Format : MPEG-4 Visual
Format profile : Advanced Simple@L5
Format settings, BVOP : 3
Format settings, QPel : No
Format settings, GMC : No warppoints
Format settings, Matrix : Default (H.263)
Codec ID : XVID
Codec ID/Hint : XviD
Duration : 1h 30mn
Bit rate : 1 045 Kbps
Width : 688 pixels
Height : 384 pixels
Display aspect ratio : 16:9
Frame rate : 23.976 fps
Color space : YUV
Chroma subsampling : 4:2:0
Bit depth : 8 bits
Scan type : Progressive
Compression mode : Lossy
Bits/(Pixel*Frame) : 0.165
Stream size : 679 MiB (91%)
Writing library : XviD 1.2.1 (UTC 2008-12-04)

Audio
ID : 1
Format : MPEG Audio
Format version : Version 1
Format profile : Layer 3
Codec ID : 55
Codec ID/Hint : MP3
Duration : 1h 24mn
Bit rate mode : Constant
Bit rate : 96.0 Kbps
Channel(s) : 1 channel
Sampling rate : 48.0 KHz
Compression mode : Lossy
Stream size : 58.3 MiB (8%)
Alignment : Aligned on interleaves
Interleave, duration : 45 ms (1.07 video frame)
Interleave, preload duration : 504 ms
Writing library : LAME3.98r
Encoding settings : -m m -V 4 -q 2 -lowpass 20.5 -b 96




   Похожие торренты   Торрент   Размер 
В этой теме нет новых непрочитанных сообщений. Горбун из Нотр Дама / The Hunchback of Notre Dame (1996) BDRip-AVC | iPad

12 | 4

1.29 ГБ

В этой теме нет новых непрочитанных сообщений. Горбун из Нотр Дама / The Hunchback of Notre Dame (1996) BDRip от HQCLUB

172 | 7

1.46 ГБ

В этой теме нет новых непрочитанных сообщений. Горбун из Нотр Дама / The Hunchback of Notre Dame (1996) BDRip-AVC от 0ptimus | D, P2, A

23 | 9

2 ГБ

В этой теме нет новых непрочитанных сообщений. Горбун из Нотр Дама / The Hunchback of Notre Dame (1996) BDRip 1080p

17 | 7

4.36 ГБ

В этой теме нет новых непрочитанных сообщений. Горбун из Нотр Дама / The Hunchback of Notre Dame (1996) HDRip от Torrent-Xzona | D,P,A

26 | 5

2.2 ГБ

В этой теме нет новых непрочитанных сообщений. Горбун из Нотр Дама / The Hunchback of Notre Dame (1996) BDRip 1080p от Youtracker

3 | 7

7.47 ГБ

В этой теме нет новых непрочитанных сообщений. Горбун из Нотр-Дама / The Hunchback of Notre Dame (1996) DVDRip от Torrent-Xzona | P2

2 | 3

700.19 МБ




Вы не можете начинать темы
Вы не можете отвечать на сообщения
Вы не можете редактировать свои сообщения
Вы не можете удалять свои сообщения
Вы не можете добавлять вложения

Перейти:  
Для Мосгорсуда, Роскомнадзора и рекламодателей: mosgorsud-torrent[собачка]yandex.ru
 Вход
ppkBB3cker v.2 © 2008-2014 @ PPK
[ Time : 0.028s | 14 Queries | GZIP : Off ]

Торрент трекер RUTOR.IN, Не можете зайти на rutor.org? Какой новый адрес рутор? Какое зеркало рутор? Не работает rutor.org и зеркала? Тогда наш торрент специально для вас. Rutor.in неофициальное зеркало rutor. В случае если у Вас заблокирован rutor или вдруг Вы не можете на него зайти, то Вы без труда сможете скачать бесплатно и без рекламы последние новинки кино, игр, сериалов и прочего у нас, на Rutor.in. Не нужно использовать прокси, чтобы зайти на рутор, достаточно воспользоваться нашим ресурсом. Все новые фильмы, игры, сериалы, книги и музыка за 2013 и 2014 годы через торрент бесплатно. Скачивайте фильмы в хорошем качестве, игры для пк, xbox, playstation без регистрации. У нас вы найдете новые Зарубежные сериалы и Русские сериалы 2013, 2014, 2015 годов. Оставайтесь с нами, качайте любимые фильмы, игры, сериалы, книги и музыку.