img image001 image001 image001 image001 image001 image001 image001 image001 image001 image001 image001 image001 image001 image001 image001

Planets Sun Sun Sun
Статистика раздачи
Автор: Снежана | Размер: 1.46 ГБ | Добавлен: 27 июл 2013
Раздают: 348    Качают: 6
Скачать торрент
Скачать торрент
Описание торрента

СообщениеДобавлено: 27 июл 2013 

Бэтмен Будущего: Возвращение Джокера / Batman Beyond: Return of the Joker
оригинальная версия без цензуры / the original uncut version



Страна: США
Жанр: анимация, киберфутуризм, боевик, триллер, криминал
Продолжительность: 01:16:45
Год выпуска: 2000

Перевод: Профессиональный (многоголосый закадровый) - "ТВ3"
Русские субтитры: есть
Субтитры: 1) русские, форсированные (в контейнере, воспроизведение по-умолчанию);
2) русские, полные (в контейнере), автор - Romych
3) английские, полные (в контейнере)

Режиссёр: Курт Геда
В ролях: Уилл Фридл, Кевин Конрой, Марк Хэмилл, Дин Стоквелл, Энджи Хармон, Тара Стронг, Матью Валенциа, Тери Гэрр, Лоурен Том, Мелисса Джоан Харт, Арлин Сёркин, Генри Роллинс, Дон Харви, Фрэнк Уэлкер, Майкл Розенбаум и другие

Описание: Действия анимационного фильма разворачиваются в футуристическом будущем, в котором Бэтмен Брюс Уэйн из-за старости передал роль защитника Готэм-Сити от преступности и беззакония юному Терри МакГиннису, облачающийся для этого в кибер-костюм Бэтмена.
В этот раз новый Бэтмен противостоит банде, которые называют себя Джокеры, и даже с самими архизлодеем - Джокером, считавшимся погибшим после битвы с предыдущим Бэтменом, Брюсом Уэйном.
Чтобы одержать победу над Клоуном-Принцем преступного мира, новый борец с преступностью в маске должен приоткрыть одну из жизненных глав предыдущего Бэтмена – историю той ночи, когда предыдущий Бэтмен сражался с Джокером в последний раз.


Качество: HDRip-AVC
Контейнер: MKV
Автор рипа: Romych

Видео-кодек: x264
Видео: x264, 720x540, 2072 kbps, 23.98fps, 0.222 bit/pixel

Аудио кодек: AC3 ACM Codec
Аудио 1: AC3 Dolby Digital, stereo/2.0 (L,R), CBR 192 kbps, 48000Hz (RUS MVO)
Аудио 2: AC3 Dolby Digital, 6Ch/5.1 (L,C,R,l,r) + LFE ch, CBR 448 kbps, 48000Hz (ENG)

Формат субтитров: softsub (SRT)


Доп. информация:
- AVC-HD-Rip сделан из 'BD-Rip [1080p]' ;
- Автор AVC-HD-rip'а - я, т.е. - Romych ~^___^~;
- Не рекомендуется к просмотру лицам, не достигшим 13 лет;
- Первый анимационный фильм по анимационного сериалу "Batman Beyond", альтернативное название - "Batman of the Future",
в России сериал известен как "Бэтмен Будущего" (по версии перевода для дубляжа "Мост-Видео"),
или "Новый Бэтмен" (по версии перевода для дубляжа теле-канала "СТС");
- Рассматривая в контексте анимационного сериала, то события анимационного фильма происходят между 2-ым и 3-им сезонами,
или после первого эпизода 3-его сезона (название эпизода - "King's Ransom");
- Существует две версии анимационного фильма: цензурная (театральная) и без цензуры (вышедшая на видео-носители).
Обе имеют как небольшие, так и и колоссальные отличия. В основном различия связаны со сценами, где присутствует показ жестокости и насилия;
- Официальные русские звуковые переводы - дубляж от "Мост-Видео" и многоголосый закадровый теле-канала "ТВ3" делались только для театральной версии, так что на места без перевода использованы субтитры;
- Для версии без цензуры, на данный момент, существует только любительский одноголосый закадровый перевод (наговор - ZM, перевод текста - SORC), и русские субтитры нашего авторства, где определенные моменты основаны на переводе текста SORC, за что ему большая благодарность;
- Русский закадровый перевод взят с 'sat-iptv-rip'а театральной версии;
- Существует одноименная комикс-адаптация анимационного фильма;
- Аббревиатура названия "ROTJ" совпадает с применяемой аббревиатурой к фильму "Return of the Jedi", одного из известнейших фильмов серии "Star Wars";
- Постер к ленте должен был напомнить о вдохновившем образ остроумного маньяка из экранизации произведению Гюго "Человек, который смеется",
так что зеленый цвет ухмыляющегося лица вовсе не является ошибкой художников, как думается большинством;
- Была создана видео-игра по мотивам в жанре 'сайд-скроллер' для игровой консоли 'PlayStation';
-Mephisto Odyssey & Static-X - "Crash"-
dvd-rip



Автор рипа: 2C

Видео: XviD, 640x352, 2 520 kbps, 23.98fps, 0.467 bit/pixel
Аудио: MPEG-Layer 3, 192 kbps, joint-stereo, 48000Hz
Размер: 75 МБ
Ссылка: http://ifolder.ru/23460868



General
UniqueID : 171162024319337305563286431175963434612 (0x80C49B571AADA6F5A7542C2A7671DE74)
Complete name : F:UploadBatman Beyond - Return of the Joker_AVC-HD-RipBatman Beyond - Return of the Joker (Uncut).mkv
Format : Matroska
File size : 1.46 GiB
Duration : 1h 16mn
Overall bit rate : 2 715 Kbps
Encoded date : UTC 2011-05-11 17:15:44
Writing application : mkvmerge v2.9.7 ('Tenderness') built on Jul 1 2009 18:43:35
Writing library : libebml v0.7.7 + libmatroska v0.8.1

Video
ID : 1
Format : AVC
Format/Info : Advanced Video Codec
Format profile : High@L4.1
Format settings, CABAC : Yes
Format settings, ReFrames : 4 frames
Format settings, GOP : M=4, N=32
Codec ID : V_MPEG4/ISO/AVC
Duration : 1h 16mn
Bit rate : 2 072 Kbps
Width : 720 pixels
Height : 540 pixels
Display aspect ratio : 4:3
Frame rate : 23.976 fps
Color space : YUV
Chroma subsampling : 4:2:0
Bit depth : 8 bits
Scan type : Progressive
Bits/(Pixel*Frame) : 0.222
Stream size : 1.08 GiB (74%)
Title : 'Batman Beyond: Return of the Joker (Uncut)'_ripped by Romych
Writing library : x264 core 115 r1947 b5a8ad7
Encoding settings : cabac=1 / ref=3 / deblock=1:1:1 / analyse=0x3:0x113 / me=hex / subme=7 / psy=1 / psy_rd=0.60:0.00 / mixed_ref=1 / me_range=16 / chroma_me=1 / trellis=1 / 8x8dct=1 / cqm=0 / deadzone=21,11 / fast_pskip=1 / chroma_qp_offset=-2 / threads=3 / sliced_threads=0 / nr=0 / decimate=1 / interlaced=0 / bluray_compat=0 / constrained_intra=0 / bframes=3 / b_pyramid=2 / b_adapt=1 / b_bias=0 / direct=1 / weightb=1 / open_gop=0 / weightp=2 / keyint=250 / keyint_min=23 / scenecut=40 / intra_refresh=0 / rc_lookahead=40 / rc=2pass / mbtree=1 / bitrate=2072 / ratetol=1.0 / qcomp=0.60 / qpmin=10 / qpmax=51 / qpstep=4 / cplxblur=20.0 / qblur=0.5 / vbv_maxrate=50000 / vbv_bufsize=50000 / nal_hrd=none / ip_ratio=1.40 / aq=1:1.00
Language : English

Audio #1
ID : 2
Format : AC-3
Format/Info : Audio Coding 3
Mode extension : CM (complete main)
Codec ID : A_AC3
Duration : 1h 16mn
Bit rate mode : Constant
Bit rate : 192 Kbps
Channel(s) : 2 channels
Channel positions : Front: L R
Sampling rate : 48.0 KHz
Bit depth : 16 bits
Compression mode : Lossy
Stream size : 105 MiB (7%)
Title : MVO 'TB3'
Language : Russian

Audio #2
ID : 3
Format : AC-3
Format/Info : Audio Coding 3
Mode extension : CM (complete main)
Codec ID : A_AC3
Duration : 1h 16mn
Bit rate mode : Constant
Bit rate : 448 Kbps
Channel(s) : 6 channels
Channel positions : Front: L C R, Side: L R, LFE
Sampling rate : 48.0 KHz
Bit depth : 16 bits
Compression mode : Lossy
Stream size : 246 MiB (17%)
Title : Original
Language : English

Text #1
ID : 4
Format : UTF-8
Codec ID : S_TEXT/UTF8
Codec ID/Info : UTF-8 Plain Text
Title : forced_by Romych
Language : Russian

Text #2
ID : 5
Format : UTF-8
Codec ID : S_TEXT/UTF8
Codec ID/Info : UTF-8 Plain Text
Title : full_by Romych
Language : Russian

Text #3
ID : 6
Format : UTF-8
Codec ID : S_TEXT/UTF8
Codec ID/Info : UTF-8 Plain Text
Title : original
Language : English




Представляем для ознакомления:
Сэмпл-1
Сэмпл-2









Скорость отдачи - от 200 до 400 kb/s, может быть и выше; иногда по ночам комп отрубаю, так что извиняйте заранее


Приятного Вам просмотра



   Похожие торренты   Торрент   Размер 
В этой теме нет новых непрочитанных сообщений. Бэтмен будущего: Возвращение Джокера / Batman Beyond: Return of the Joker (2000) BDRip от HQCLUB | Безцензурная версия | Uncut Version

27 | 5

1.45 ГБ

В этой теме нет новых непрочитанных сообщений. Бэтмен будущего: Возвращение Джокера / Batman Beyond: Return of the Joker (2000) DVDRip

20 | 8

1.46 ГБ

В этой теме нет новых непрочитанных сообщений. Бэтмен будущего: Возвращение Джокера / Batman Beyond: Return of the Joker (2000) BDRip 1080p

8 | 3

4.6 ГБ

В этой теме нет новых непрочитанных сообщений. Бэтмен: Маска Фантазма / Batman: Mask of the Phantasm (1993) DVDRip by ~Romych~ | Fullscreen Version | L2, A

259 | 23

1.36 ГБ

В этой теме нет новых непрочитанных сообщений. Игра Джокера / Joker Game (2015) HDRip | L

678 | 87

2.05 ГБ

В этой теме нет новых непрочитанных сообщений. Бэтмен: Возвращение Темного рыцаря. Часть 1 / Batman: The Dark Knight Returns, Part 1 (2012) HDRip 1080p | L1 | трейлер

10 | 2

188.44 МБ

В этой теме нет новых непрочитанных сообщений. OST - Бэтмен будущего / Batman Beyond (1999) mp3

14 | 16

68.39 МБ




Вы не можете начинать темы
Вы не можете отвечать на сообщения
Вы не можете редактировать свои сообщения
Вы не можете удалять свои сообщения
Вы не можете добавлять вложения

Перейти:  
Для Мосгорсуда, Роскомнадзора и рекламодателей: mosgorsud-torrent[собачка]yandex.ru
 Вход
ppkBB3cker v.2 © 2008-2014 @ PPK
[ Time : 0.046s | 14 Queries | GZIP : Off ]

Торрент трекер RUTOR.IN, Не можете зайти на rutor.org? Какой новый адрес рутор? Какое зеркало рутор? Не работает rutor.org и зеркала? Тогда наш торрент специально для вас. Rutor.in неофициальное зеркало rutor. В случае если у Вас заблокирован rutor или вдруг Вы не можете на него зайти, то Вы без труда сможете скачать бесплатно и без рекламы последние новинки кино, игр, сериалов и прочего у нас, на Rutor.in. Не нужно использовать прокси, чтобы зайти на рутор, достаточно воспользоваться нашим ресурсом. Все новые фильмы, игры, сериалы, книги и музыка за 2013 и 2014 годы через торрент бесплатно. Скачивайте фильмы в хорошем качестве, игры для пк, xbox, playstation без регистрации. У нас вы найдете новые Зарубежные сериалы и Русские сериалы 2013, 2014, 2015 годов. Оставайтесь с нами, качайте любимые фильмы, игры, сериалы, книги и музыку.