img image001 image001 image001 image001 image001 image001 image001 image001 image001 image001 image001 image001 image001 image001 image001

Planets Sun Sun Sun
Статистика раздачи
Автор: Снежана | Размер: 17.55 ГБ | Добавлен: 27 июл 2013
Раздают: 0    Качают: 2
Скачать торрент
Скачать торрент
Описание торрента

СообщениеДобавлено: 27 июл 2013 

#77

Информация о фильме
Название: Секрет Крыс
Оригинальное название: The Secret of NIMH
Год выхода: 1982
Жанр: мультфильм, фантастика, фэнтези, драма, семейный
Режиссер: Дон Блат / Don Bluth
Роли озвучивали: Дерек Джекоби, Элизабет Хартман, Артур Мэлет, Дом ДеЛуис, Гермиона Бадделей, Шеннен Доэрти, Уил Уитон, Джоди Хикс, Йен Фрид, Джон Кэррадайн

Описание:

Сражаясь за спасение своего домика от разрушения фермером Фицджиббом, миссис Бризби прибегает к помощи своих друзей, среди которых красавица — ворона, мудрая сова и несколько невероятно сообразительных крыс.




Выпущено: США
Продолжительность: 01:22:45
Перевод: Профессиональный (полное дублирование) + Профессиональный (двухголосый, закадровый) НТВ + Оригинальная звуковая дорожка + Авторский одноголосый Ю.Живова + Авторский одноголосый А.Гаврилова
Субтитры: Русские, английские

Доп. информация:

Текст читали Ольга Голованова и Игорь Тарадайкин. За дорожку спасибо jurasiom
За авторские переводы Гаврилов и Живова спасибо _int_ и AlsKnight

Файл:
Качество: BDRemux
Формат: MKV
Видео: MPEG-4 AVC Video 27994 kbps 1080p / 23.976 fps / 16:9 / High Profile 4.1
Аудио 1: Dolby Digital Audio Russian 2.0 / 48 kHz / 192 kbps [дубляж]
Аудио 2: Dolby Digital Audio Russian 2.0 / 48 kHz / 192 kbps [НТВ+]
Аудио 3: Dolby Digital Audio Russian 2.0 / 48 kHz / 192 kbps [Гаврилов]
Аудио 4: Dolby Digital Audio Russian 2.0 / 48 kHz / 192 kbps [Живов]
Аудио 5: DTS-HD Master Audio English 1616 kbps 2.0 / 48 kHz / 1616 kbps / 24-bit (DTS Core: 2.0 / 48 kHz / 1509 kbps / 24-bit)

General
UniqueID : 247978976613438281273314541661833374521 (0xBA8F037F7910CD418BE50FE171E7AB39)
Complete name : J:The.Secret.Of.NIMH.1982.1080p.Bluray.AVC.Remux.mkv
Format : Matroska
File size : 17.6 GiB
Duration : 1h 22mn
Overall bit rate : 30.4 Mbps
Movie name : The.Secret.Of.NIMH.1982.1080p.Bluray.AVC.Remux
Encoded date : UTC 2011-04-06 22:26:17
Writing application : mkvmerge v3.2.0 ('Beginnings') built on Feb 12 2010 16:46:17
Writing library : libebml v0.7.9 + libmatroska v0.8.1

Video
ID : 1
Format : AVC
Format/Info : Advanced Video Codec
Format profile : High@L4.1
Format settings, CABAC : Yes
Format settings, ReFrames : 4 frames
Codec ID : V_MPEG4/ISO/AVC
Duration : 1h 22mn
Bit rate mode : Variable
Maximum bit rate : 38.0 Mbps
Width : 1 920 pixels
Height : 1 080 pixels
Display aspect ratio : 16:9
Frame rate : 23.976 fps
Color space : YUV
Chroma subsampling : 4:2:0
Bit depth : 8 bits
Scan type : Progressive
Title : uralmix
Color primaries : BT.709-5, BT.1361, IEC 61966-2-4, SMPTE RP177
Transfer characteristics : BT.709-5, BT.1361
Matrix coefficients : BT.709-5, BT.1361, IEC 61966-2-4 709, SMPTE RP177

Audio #1
ID : 2
Format : AC-3
Format/Info : Audio Coding 3
Mode extension : CM (complete main)
Codec ID : A_AC3
Duration : 1h 22mn
Bit rate mode : Constant
Bit rate : 192 Kbps
Channel(s) : 2 channels
Channel positions : Front: L R
Sampling rate : 48.0 KHz
Bit depth : 16 bits
Compression mode : Lossy
Stream size : 114 MiB (1%)
Title : дубляж
Language : Russian

Audio #2
ID : 3
Format : AC-3
Format/Info : Audio Coding 3
Mode extension : CM (complete main)
Codec ID : A_AC3
Duration : 1h 22mn
Bit rate mode : Constant
Bit rate : 192 Kbps
Channel(s) : 2 channels
Channel positions : Front: L R
Sampling rate : 48.0 KHz
Bit depth : 16 bits
Compression mode : Lossy
Stream size : 114 MiB (1%)
Title : НТВ+ (Ольга Голованова и Игорь Тарадайкин)
Language : Russian

Audio #3
ID : 4
Format : AC-3
Format/Info : Audio Coding 3
Mode extension : CM (complete main)
Codec ID : A_AC3
Duration : 1h 22mn
Bit rate mode : Constant
Bit rate : 192 Kbps
Channel(s) : 2 channels
Channel positions : Front: L R
Sampling rate : 48.0 KHz
Bit depth : 16 bits
Compression mode : Lossy
Stream size : 114 MiB (1%)
Title : авторский - Андрей Гаврилов
Language : Russian

Audio #4
ID : 5
Format : AC-3
Format/Info : Audio Coding 3
Mode extension : CM (complete main)
Codec ID : A_AC3
Duration : 1h 22mn
Bit rate mode : Constant
Bit rate : 192 Kbps
Channel(s) : 2 channels
Channel positions : Front: L R
Sampling rate : 48.0 KHz
Bit depth : 16 bits
Compression mode : Lossy
Stream size : 114 MiB (1%)
Title : авторский - Юрий Живов
Language : Russian

Audio #5
ID : 6
Format : DTS
Format/Info : Digital Theater Systems
Format profile : MA
Codec ID : A_DTS
Duration : 1h 22mn
Bit rate mode : Variable
Channel(s) : 2 channels
Channel positions : Front: L R
Sampling rate : 48.0 KHz
Bit depth : 24 bits
Compression mode : Lossy
Language : English

Text #1
ID : 7
Format : UTF-8
Codec ID : S_TEXT/UTF8
Codec ID/Info : UTF-8 Plain Text
Language : Russian

Text #2
ID : 8
Format : UTF-8
Codec ID : S_TEXT/UTF8
Codec ID/Info : UTF-8 Plain Text
Language : English

Скриншоты:



Спасибо большое Diablo!



   Похожие торренты   Торрент   Размер 
В этой теме нет новых непрочитанных сообщений. Секрет Н.И.М.Х. / Секрет Крыс / The Secret of NIMH (1982) BDRip 1080p

3 | 4

5.9 ГБ

В этой теме нет новых непрочитанных сообщений. Секрет Н.И.М.Х. / Секрет Крыс / The Secret of NIMH (1982) BDRip-AVC от AVCurtain

48 | 8

2.69 ГБ

В этой теме нет новых непрочитанных сообщений. Секрет Н.И.М.Х. / Секрет Крыс / The Secret of NIMH (1982) BDRip 720p

1 | 2

8.13 ГБ

В этой теме нет новых непрочитанных сообщений. Секрет Н.И.М.Х. / Секрет Крыс / The Secret of NIMH (1982) BDRip от HQCLUB

57 | 11

1.46 ГБ

В этой теме нет новых непрочитанных сообщений. Секрет Н.И.М.Х. 1 - 2 / The Secret of NIMH; The Secret of NIMH 2: Timmy to the Rescue (1982-1998) 2xDVD5 от New-Team | D, P | Лицензия

96 | 33

7.35 ГБ

В этой теме нет новых непрочитанных сообщений. Секрет Н.И.М.Х. / The Secret of NIMH (1982) BDRip 1080p | D, P2, A

51 | 19

13.51 ГБ

В этой теме нет новых непрочитанных сообщений. Секрет Н.И.М.Х. / The Secret of NIMH (1982) DVDRip

14 | 2

1.37 ГБ




Вы не можете начинать темы
Вы не можете отвечать на сообщения
Вы не можете редактировать свои сообщения
Вы не можете удалять свои сообщения
Вы не можете добавлять вложения

Перейти:  
Для Мосгорсуда, Роскомнадзора и рекламодателей: mosgorsud-torrent[собачка]yandex.ru
 Вход
ppkBB3cker v.2 © 2008-2014 @ PPK
[ Time : 0.037s | 15 Queries | GZIP : Off ]

Торрент трекер RUTOR.IN, Не можете зайти на rutor.org? Какой новый адрес рутор? Какое зеркало рутор? Не работает rutor.org и зеркала? Тогда наш торрент специально для вас. Rutor.in неофициальное зеркало rutor. В случае если у Вас заблокирован rutor или вдруг Вы не можете на него зайти, то Вы без труда сможете скачать бесплатно и без рекламы последние новинки кино, игр, сериалов и прочего у нас, на Rutor.in. Не нужно использовать прокси, чтобы зайти на рутор, достаточно воспользоваться нашим ресурсом. Все новые фильмы, игры, сериалы, книги и музыка за 2013 и 2014 годы через торрент бесплатно. Скачивайте фильмы в хорошем качестве, игры для пк, xbox, playstation без регистрации. У нас вы найдете новые Зарубежные сериалы и Русские сериалы 2013, 2014, 2015 годов. Оставайтесь с нами, качайте любимые фильмы, игры, сериалы, книги и музыку.
cron