img image001 image001 image001 image001 image001 image001 image001 image001 image001 image001 image001 image001 image001 image001 image001

Planets Sun Sun Sun
Статистика раздачи
Автор: Снежана | Размер: 5.9 ГБ | Добавлен: 27 июл 2013
Раздают: 3    Качают: 4
Скачать торрент
Скачать торрент
Описание торрента

СообщениеДобавлено: 27 июл 2013 

#77

Информация о фильме
Название: Секрет Крыс
Оригинальное название: The Secret of NIMH
Год выхода: 1982
Жанр: мультфильм, фантастика, фэнтези, драма, семейный
Режиссер: Дон Блат / Don Bluth
Роли озвучивали: Дерек Джекоби, Элизабет Хартман, Артур Мэлет, Дом ДеЛуис, Гермиона Бадделей, Шеннен Доэрти, Уил Уитон, Джоди Хикс, Йен Фрид, Джон Кэррадайн

Описание:

Сражаясь за спасение своего домика от разрушения фермером Фицджиббом, миссис Бризби прибегает к помощи своих друзей, среди которых красавица — ворона, мудрая сова и несколько невероятно сообразительных крыс.




Выпущено: США
Продолжительность: 01:22:45
Перевод: Профессиональный (полное дублирование) + Профессиональный (двухголосый, закадровый) НТВ + Авторский одноголосый А.Гаврилова + Оригинальная звуковая дорожка
Субтитры: Русские

Файл:
Качество: BDRip 1080p
Формат: MKV
Видео: Видео: AVC High@L4.1 (ref=4); 1080p; 1920x1040 (16:9); 7932 Kbps; 23.976 fps; 0.166 bpp
Аудио: Аудио №1: Русский (Дубляж); AC3; 384 Kbps; CBR; 6 ch; 16 bit; 48.0 KHz
Аудио 2: Аудио №2: Русский (НТВ+); AC3; 192 Kbps; CBR; 2 ch; 16 bit; 48.0 KHz
Аудио 3: Аудио №3: Русский (Гаврилов); AC3; 192 Kbps; CBR; 2 ch; 16 bit; 48.0 KHz
Аудио 4: Аудио №4: English; DTS; 1509 Kbps; CBR; 2 ch; 24 bit; 48.0 KHz
Субтитры: Русский (UTF-8)

Код:
Format : Matroska
File size : 5.90 GiB
Duration : 1h 22mn
Overall bit rate : 10.2 Mbps
Movie name : Секрет Н.И.М.Х. / The Secret of NIMH (1982) [Kreved.kz]
Encoded date : UTC 2011-04-07 18:28:00
Writing application : mkvmerge v4.6.0 ('Still Crazy After All These Years') built on Mar 10 2011 02:50:32
Writing library : libebml v1.2.0 + libmatroska v1.1.0

Video
ID : 1
Format : AVC
Format/Info : Advanced Video Codec
Format profile : High@L4.1
Format settings, CABAC : Yes
Format settings, ReFrames : 4 frames
Codec ID : V_MPEG4/ISO/AVC
Duration : 1h 22mn
Bit rate : 7 932 Kbps
Width : 1 920 pixels
Height : 1 040 pixels
Display aspect ratio : 16:9
Frame rate : 23.976 fps
Color space : YUV
Chroma subsampling : 4:2:0
Bit depth : 8 bits
Scan type : Progressive
Bits/(Pixel*Frame) : 0.166
Stream size : 4.47 GiB (76%)
Writing library : x264 core 114 r1913 5fd3dce
Encoding settings : cabac=1 / ref=4 / deblock=1:0:0 / analyse=0x3:0x133 / me=umh / subme=8 / psy=1 / psy_rd=1.00:0.00 / mixed_ref=1 / me_range=16 / chroma_me=1 / trellis=1 / 8x8dct=1 / cqm=0 / deadzone=21,11 / fast_pskip=0 / chroma_qp_offset=-2 / threads=6 / sliced_threads=0 / nr=0 / decimate=1 / interlaced=0 / constrained_intra=0 / bframes=3 / b_pyramid=2 / b_adapt=1 / b_bias=0 / direct=1 / weightb=1 / open_gop=0 / weightp=2 / keyint=240 / keyint_min=24 / scenecut=40 / intra_refresh=0 / rc_lookahead=40 / rc=2pass / mbtree=1 / bitrate=7932 / ratetol=1.0 / qcomp=0.60 / qpmin=0 / qpmax=69 / qpstep=4 / cplxblur=20.0 / qblur=0.5 / ip_ratio=1.40 / aq=1:1.00
Language : English

Audio #1
ID : 2
Format : AC-3
Format/Info : Audio Coding 3
Mode extension : CM (complete main)
Codec ID : A_AC3
Duration : 1h 22mn
Bit rate mode : Constant
Bit rate : 384 Kbps
Channel(s) : 6 channels
Channel positions : Front: L C R, Side: L R, LFE
Sampling rate : 48.0 KHz
Bit depth : 16 bits
Compression mode : Lossy
Stream size : 227 MiB (4%)
Title : Dub
Language : Russian

Audio #2
ID : 3
Format : AC-3
Format/Info : Audio Coding 3
Mode extension : CM (complete main)
Codec ID : A_AC3
Duration : 1h 22mn
Bit rate mode : Constant
Bit rate : 192 Kbps
Channel(s) : 2 channels
Channel positions : Front: L R
Sampling rate : 48.0 KHz
Bit depth : 16 bits
Compression mode : Lossy
Stream size : 114 MiB (2%)
Title : DVO (NTV+)
Language : Russian

Audio #3
ID : 4
Format : AC-3
Format/Info : Audio Coding 3
Mode extension : CM (complete main)
Codec ID : A_AC3
Duration : 1h 22mn
Bit rate mode : Constant
Bit rate : 192 Kbps
Channel(s) : 2 channels
Channel positions : Front: L R
Sampling rate : 48.0 KHz
Bit depth : 16 bits
Compression mode : Lossy
Stream size : 114 MiB (2%)
Title : AVO Gavrilov
Language : Russian

Audio #4
ID : 5
Format : DTS
Format/Info : Digital Theater Systems
Codec ID : A_DTS
Duration : 1h 22mn
Bit rate mode : Constant
Bit rate : 1 510 Kbps
Channel(s) : 2 channels
Channel positions : Front: L R
Sampling rate : 48.0 KHz
Bit depth : 24 bits
Compression mode : Lossy
Stream size : 894 MiB (15%)
Title : Original
Language : English

Text
ID : 6
Format : UTF-8
Codec ID : S_TEXT/UTF8
Codec ID/Info : UTF-8 Plain Text
Language : Russian

Скриншоты:



Рип: HALCYON
Релиз:



   Похожие торренты   Торрент   Размер 
В этой теме нет новых непрочитанных сообщений. Секрет Н.И.М.Х. / Секрет Крыс / The Secret of NIMH (1982) BDRemux 1080p

0 | 2

17.55 ГБ

В этой теме нет новых непрочитанных сообщений. Секрет Н.И.М.Х. / Секрет Крыс / The Secret of NIMH (1982) BDRip 720p

1 | 2

8.13 ГБ

В этой теме нет новых непрочитанных сообщений. Секрет Н.И.М.Х. / Секрет Крыс / The Secret of NIMH (1982) BDRip от HQCLUB

57 | 11

1.46 ГБ

В этой теме нет новых непрочитанных сообщений. Секрет Н.И.М.Х. / Секрет Крыс / The Secret of NIMH (1982) BDRip-AVC от AVCurtain

50 | 9

2.69 ГБ

В этой теме нет новых непрочитанных сообщений. Секрет Н.И.М.Х. / The Secret of NIMH (1982) BDRip 1080p | D, P2, A

50 | 19

13.51 ГБ

В этой теме нет новых непрочитанных сообщений. Секрет Н.И.М.Х. 1 - 2 / The Secret of NIMH; The Secret of NIMH 2: Timmy to the Rescue (1982-1998) 2xDVD5 от New-Team | D, P | Лицензия

96 | 34

7.35 ГБ

В этой теме нет новых непрочитанных сообщений. Секрет Н.И.М.Х. / The Secret of NIMH (1982) BDRip-AVC | iPad

3 | 3

1.41 ГБ




Вы не можете начинать темы
Вы не можете отвечать на сообщения
Вы не можете редактировать свои сообщения
Вы не можете удалять свои сообщения
Вы не можете добавлять вложения

Перейти:  
Для Мосгорсуда, Роскомнадзора и рекламодателей: mosgorsud-torrent[собачка]yandex.ru
 Вход
ppkBB3cker v.2 © 2008-2014 @ PPK
[ Time : 1.924s | 14 Queries | GZIP : Off ]

Торрент трекер RUTOR.IN, Не можете зайти на rutor.org? Какой новый адрес рутор? Какое зеркало рутор? Не работает rutor.org и зеркала? Тогда наш торрент специально для вас. Rutor.in неофициальное зеркало rutor. В случае если у Вас заблокирован rutor или вдруг Вы не можете на него зайти, то Вы без труда сможете скачать бесплатно и без рекламы последние новинки кино, игр, сериалов и прочего у нас, на Rutor.in. Не нужно использовать прокси, чтобы зайти на рутор, достаточно воспользоваться нашим ресурсом. Все новые фильмы, игры, сериалы, книги и музыка за 2013 и 2014 годы через торрент бесплатно. Скачивайте фильмы в хорошем качестве, игры для пк, xbox, playstation без регистрации. У нас вы найдете новые Зарубежные сериалы и Русские сериалы 2013, 2014, 2015 годов. Оставайтесь с нами, качайте любимые фильмы, игры, сериалы, книги и музыку.