img image001 image001 image001 image001 image001 image001 image001 image001 image001 image001 image001 image001 image001 image001 image001

Planets Sun Sun Sun
Статистика раздачи
Автор: Снежана | Размер: 3.57 ГБ | Добавлен: 27 июл 2013
Раздают: 1    Качают: 4
Скачать торрент
Скачать торрент
Описание торрента

СообщениеДобавлено: 27 июл 2013 

#77

Страна: США
Жанр: Фэнтези, приключения
Продолжительность: 01:22:39
Год выпуска: 1998
Перевод: Профессиональный (дублированный)
Перевод (2): Любительский (многоголосый закадровый)
Русские субтитры: есть
Режиссёр: Фредерик Дю Шо / Frederik Du Chau
Роли озвучивали: Джессалин Гилсиг, Кэри Элвес, Гэри Олдман
Описание: Когда - то в старой Англии, во времена рыцарей Круглого стола, существовал таинственный город Камелот. И правил им король Артур, владевший волшебным мечом - Экскалибуром. Но коварный и злой барон Рубер решил похитить меч и разрушить город чести и отваги. На поиски похищенного Экскалибура отправляются смелая девушка Кейли и юноша Гэррет. Любовь и верность помогают им в пути по магическому лесу, в борьбе с чудовищами и бароном. Старинная история в потрясающей мультипликации.
Доп. материалы:
Интерактивное меню на русском языке.
Дополнительные материалов присутствуют – немного арта.
Доп. информация: Самиздат релиз - собственная сборка из двух вариантов фильма, оцифровки с ВШС и найденных в интернете материалов.
Исходное видео и звуковые дорожки не пережимались и не редактировались.
Отличия - в двух новых дорожках и доп материалах.
В варианте с русскими песнями (оцифровано с ВШС), песни частично дублированы, частично в «закадровом» переводе. Почему так – понятия не имею, все вопросы к Мост-Видео.
Многоголосый закадровый - в принципе неплохой, хотя, слегонца корявенький.


Файл:
Видео
Идентификатор : 224 (0xE0)
Формат : MPEG Video
Версия формата : Version 2
Профиль формата : Main@Main
Параметр BVOP формата : Да
Параметр матрицы формата : По умолчанию
Параметры GOP формата : M=3, N=15
Продолжительность : 23 м.
Вид битрейта : Переменный
Битрейт : 4332 Кбит/сек
Номинальный битрейт : 6700 Кбит/сек
Ширина : 720 пикс.
Высота : 576 пикс.
Соотношение сторон : 16:9
Частота кадров : 25,000 кадр/сек
Стандарт вещания : PAL
Цветовое пространство : YUV
Подвыборка цветности : 4:2:0
Битовая глубина : 8 бит
Тип развёртки : Чересстрочная
Порядок развёртки : Верхнее поле первое
Метод сжатия : С потерями
Бит/(Пиксели*Кадры) : 0.418
Размер потока : 724 Мбайт (72%)

Аудио #1
Идентификатор : 189 (0xBD)-128 (0x80)
Формат : AC-3
Формат/Информация : Audio Coding 3
Расширение режима : CM (complete main)
Режим смешивания : DVD-Video
Продолжительность : 23 м.
Вид битрейта : Постоянный
Битрейт : 384 Кбит/сек
Каналы : 6 каналов
Расположение каналов : Front: L C R, Side: L R, LFE
Частота : 48,0 КГц
Битовая глубина : 16 бит
Метод сжатия : С потерями
Задержка видео : -80 мс.
Размер потока : 64,1 Мбайт (6%)

Аудио #2
Идентификатор : 189 (0xBD)-129 (0x81)
Формат : AC-3
Формат/Информация : Audio Coding 3
Расширение режима : CM (complete main)
Режим смешивания : DVD-Video
Продолжительность : 23 м.
Вид битрейта : Постоянный
Битрейт : 384 Кбит/сек
Каналы : 2 канала
Расположение каналов : Front: L R
Частота : 48,0 КГц
Битовая глубина : 16 бит
Метод сжатия : С потерями
Задержка видео : -80 мс.
Размер потока : 64,1 Мбайт (6%)

Аудио #3
Идентификатор : 189 (0xBD)-130 (0x82)
Формат : AC-3
Формат/Информация : Audio Coding 3
Расширение режима : CM (complete main)
Режим смешивания : DVD-Video
Продолжительность : 23 м.
Вид битрейта : Постоянный
Битрейт : 384 Кбит/сек
Каналы : 2 канала
Расположение каналов : Front: L R
Частота : 48,0 КГц
Битовая глубина : 16 бит
Метод сжатия : С потерями
Задержка видео : -80 мс.
Размер потока : 64,1 Мбайт (6%)

Аудио #4
Идентификатор : 189 (0xBD)-131 (0x83)
Формат : AC-3
Формат/Информация : Audio Coding 3
Расширение режима : CM (complete main)
Режим смешивания : DVD-Video
Продолжительность : 23 м.
Вид битрейта : Постоянный
Битрейт : 384 Кбит/сек
Каналы : 6 каналов
Расположение каналов : Front: L C R, Side: L R, LFE
Частота : 48,0 КГц
Битовая глубина : 16 бит
Метод сжатия : С потерями
Задержка видео : -80 мс.
Размер потока : 64,1 Мбайт (6%)

Текст #1
Идентификатор : 189 (0xBD)-32 (0x20)
Формат : RLE
Формат/Информация : Run-length encoding
Режим смешивания : DVD-Video

Качество: DVD5 (Custom)
Формат: DVD-video
Видео: Видео: PAL 16:9 (720x576) VBR Auto Letterboxed
Аудио: Русский дубляж (взято с лицензионного ДВД, песни на английском). Dolby AC3, 6 ch, 384 kbps
Аудио 2: Русский дубляж с песнями (оцифровано с ВШС). Dolby AC3, 2 ch 384, kbps
Аудио 3: Русский многоголосый закадровый. Dolby AC3, 2 ch, 384 kbps
Аудио 4: English (оригинальный) Dolby AC3, 6 ch, 384 kbps
Субтитры: Русские, Русские (только песни), Английские, Английские (только песни)




   Похожие торренты   Торрент   Размер 
В этой теме нет новых непрочитанных сообщений. Волшебный меч: Спасение Камелота / The Magic Sword: Quest for Camelot (1998) DVDRip-AVC от Zlofenix

33 | 4

2.16 ГБ

В этой теме нет новых непрочитанных сообщений. Волшебный меч: Спасение Камелота / Quest for Camelot (1998) DVDRip

348 | 3

744.89 МБ

В этой теме нет новых непрочитанных сообщений. Волшебный меч: Спасение Камелота / Quest for Camelot (1998) WEB-DL 720p от HDCLUB

248 | 63

3.2 ГБ

В этой теме нет новых непрочитанных сообщений. Рыцарь Камелота / A Knight in Camelot (1998) DVD5 от Youtracker | P2

3 | 14

4.03 ГБ

В этой теме нет новых непрочитанных сообщений. Рыцарь Камелота / A Knight in Camelot (1998) DVDRip | P2

3 | 2

745.79 МБ

В этой теме нет новых непрочитанных сообщений. Рыцарь Камелота / A Knight in Camelot (1998) DVDRip

77 | 9

1.37 ГБ

В этой теме нет новых непрочитанных сообщений. Рыцарь Камелота / A Knight in Camelot (1998) DVDRip от RUlondon

35 | 4

1.37 ГБ




Вы не можете начинать темы
Вы не можете отвечать на сообщения
Вы не можете редактировать свои сообщения
Вы не можете удалять свои сообщения
Вы не можете добавлять вложения

Перейти:  
Для Мосгорсуда, Роскомнадзора и рекламодателей: mosgorsud-torrent[собачка]yandex.ru
 Вход
ppkBB3cker v.2 © 2008-2014 @ PPK
[ Time : 0.037s | 15 Queries | GZIP : Off ]

Торрент трекер RUTOR.IN, Не можете зайти на rutor.org? Какой новый адрес рутор? Какое зеркало рутор? Не работает rutor.org и зеркала? Тогда наш торрент специально для вас. Rutor.in неофициальное зеркало rutor. В случае если у Вас заблокирован rutor или вдруг Вы не можете на него зайти, то Вы без труда сможете скачать бесплатно и без рекламы последние новинки кино, игр, сериалов и прочего у нас, на Rutor.in. Не нужно использовать прокси, чтобы зайти на рутор, достаточно воспользоваться нашим ресурсом. Все новые фильмы, игры, сериалы, книги и музыка за 2013 и 2014 годы через торрент бесплатно. Скачивайте фильмы в хорошем качестве, игры для пк, xbox, playstation без регистрации. У нас вы найдете новые Зарубежные сериалы и Русские сериалы 2013, 2014, 2015 годов. Оставайтесь с нами, качайте любимые фильмы, игры, сериалы, книги и музыку.
cron