img image001 image001 image001 image001 image001 image001 image001 image001 image001 image001 image001 image001 image001 image001 image001

Planets Sun Sun Sun
Статистика раздачи
Автор: Снежана | Размер: 2.18 ГБ | Добавлен: 27 июл 2013
Раздают: 8    Качают: 3
Скачать торрент
Скачать торрент
Описание торрента

СообщениеДобавлено: 27 июл 2013 

#77

Информация о фильме
Название: Делай ноги
Оригинальное название: Happy Feet
Год выхода: 2006
Жанр: Мультфильм, мелодрама, комедия, приключения, семейный
Режиссер: Джордж Миллер, Уоррен Коулмэн, Джуди Моррис
В ролях: Элайджа Вуд, Робин Уильямс, Бриттани Мерфи, Хью Джекман, Николь Кидман, Хьюго Уивинг, Мириам Марголис, Карлос Алазраки, Ломбардо Бойяр, Джефф Гарсиа

О фильме:
В музыкальном мире императорских пингвинов, которые находят себе пару благодаря пению, рождается пингвиненок по имени Мамбл, который не может издать ни одной ноты… зато может отплясывать ту еще чечетку. Его родители, Норма Джин и Мемфис в отчаянии, но надеются, что их лишенный музыкального слуха малыш перерастет свое нелепое танцевальное увлечение. Однако пытаясь пропеть хоть какую-то мелодию, он не может перестать отбивать чечетку даже ради того, чтобы завоевать любовь своей возлюбленной Глории…



Страна: США, Австралия
Студия: Animal Logic, Warner Bros. Pictures
Продолжительность: 01:48:32
Перевод: Дублированный + Украинский (дублированный) + Оригинал (Английский)

Файл
Формат: MKV
Кодек: H.264
Качество: BDRip-AVC
Видео: 1024х424 (2,40:1), 2494 Kbps, 23,976 fps, 0.240 bit/pixel
Аудио 1#: Русский AC3 Dolby Digital; 48 kHz, 6 ch, 384 kbps
Аудио 2#: Украинский AC3 Dolby Digital; 48 kHz, 6 ch, 384 kbps отдельно на sendfile.su
Аудио 3#: Английский AC3 Dolby Digital; 48 kHz, 6 ch, 384 kbps отдельно на sendfile.su
Субтитры: Русские, Украинские, Английские
Размер: 2.18 GB (1/2 DVD-R)
Скачать: Семпл

Общее
Уникальный идентификатор : 252798366788308274710100338738226770651 (0xBE2F31C76885CE5D976AF8CADBCFB2DB)
Полное имя : F:Delai.Nogi.2006.x264.BDRip-AVC.mkv
Формат : Matroska
Размер файла : 2,18 Гбайт
Продолжительность : 1 ч. 48 м.
Общий поток : 2879 Кбит/сек
Дата кодирования : UTC 2011-05-22 10:52:13
Программа кодирования : mkvmerge v4.7.0 ('Just Like You Imagined') сборка от Apr 21 2011 01:13:14
Библиотека кодирования : libebml v1.2.0 + libmatroska v1.1.0

Видео
Идентификатор : 1
Формат : AVC
Формат/Информация : Advanced Video Codec
Профиль формата : High@L4.1
Параметр CABAC формата : Да
Параметр ReFrames формата : 10 кадры
Режим смешивания : Header stripping
Идентификатор кодека : V_MPEG4/ISO/AVC
Продолжительность : 1 ч. 48 м.
Битрейт : 2494 Кбит/сек
Ширина : 1024 пикс.
Высота : 424 пикс.
Соотношение сторон : 2,40:1
Частота кадров : 23,976 кадр/сек
Цветовое пространство : YUV
Подвыборка цветности : 4:2:0
Битовая глубина : 8 бит
Тип развёртки : Прогрессивная
Бит/(Пиксели*Кадры) : 0.240
Размер потока : 1,85 Гбайт (85%)
Библиотека кодирования : x264 core 115 r1995 c1e60b9
Настройки программы : cabac=1 / ref=11 / deblock=1:-3:-3 / analyse=0x3:0x133 / me=umh / subme=10 / psy=1 / psy_rd=1.00:0.00 / mixed_ref=1 / me_range=64 / chroma_me=1 / trellis=2 / 8x8dct=1 / cqm=0 / deadzone=21,11 / fast_pskip=0 / chroma_qp_offset=-2 / threads=6 / sliced_threads=0 / nr=0 / decimate=1 / interlaced=0 / bluray_compat=0 / constrained_intra=0 / bframes=3 / b_pyramid=1 / b_adapt=2 / b_bias=0 / direct=3 / weightb=1 / open_gop=0 / weightp=2 / keyint=250 / keyint_min=23 / scenecut=40 / intra_refresh=0 / rc_lookahead=90 / rc=2pass / mbtree=1 / bitrate=2494 / ratetol=1.0 / qcomp=0.60 / qpmin=1 / qpmax=50 / qpstep=4 / cplxblur=20.0 / qblur=0.5 / vbv_maxrate=20000 / vbv_bufsize=20000 / nal_hrd=none / ip_ratio=1.40 / aq=1:1.00
Язык : English

Аудио
Идентификатор : 2
Формат : AC-3
Формат/Информация : Audio Coding 3
Расширение режима : CM (complete main)
Режим смешивания : Header stripping
Идентификатор кодека : A_AC3
Продолжительность : 1 ч. 48 м.
Вид битрейта : Постоянный
Битрейт : 384 Кбит/сек
Канал(ы) : 6 канала(ов)
Расположение каналов : Front: L C R, Side: L R, LFE
Частота : 48,0 КГц
Битовая глубина : 16 бит
Метод сжатия : С потерями
Размер потока : 298 Мбайт (13%)
Заголовок : Дубляж
Язык : Russian

Текст #1
Идентификатор : 3
Формат : UTF-8
Идентификатор кодека : S_TEXT/UTF8
Идентификатор кодека/Информация : UTF-8 Plain Text
Язык : Russian

Текст #2
Идентификатор : 4
Формат : UTF-8
Идентификатор кодека : S_TEXT/UTF8
Идентификатор кодека/Информация : UTF-8 Plain Text
Язык : Ukrainian

Текст #3
Идентификатор : 5
Формат : UTF-8
Идентификатор кодека : S_TEXT/UTF8
Идентификатор кодека/Информация : UTF-8 Plain Text
Язык : English




Автор рипа: Alexander82



   Похожие торренты   Торрент   Размер 
В этой теме нет новых непрочитанных сообщений. Делай ноги / Happy Feet (2006) BDRip-AVC | D

249 | 12

743.03 МБ

В этой теме нет новых непрочитанных сообщений. Делай ноги / Happy Feet (2006) BDRip 1080p

73 | 7

4.37 ГБ

В этой теме нет новых непрочитанных сообщений. Делай ноги / Happy Feet (2006) BDRip от HQCLUB

34 | 3

2.18 ГБ

В этой теме нет новых непрочитанных сообщений. Делай ноги / Happy Feet (2006) BDRip-AVC от NovaLan

20 | 7

1.97 ГБ

В этой теме нет новых непрочитанных сообщений. Делай ноги / Happy Feet (2006) BDRip 720 от SuperMin

144 | 20

2.38 ГБ

В этой теме нет новых непрочитанных сообщений. Делай ноги / Happy Feet (2006) BDRip 720 от SuperMin | D

35 | 4

3.06 ГБ

В этой теме нет новых непрочитанных сообщений. Делай ноги / Happy Feet (2006) HDRip | D

24 | 6

750.22 МБ




Вы не можете начинать темы
Вы не можете отвечать на сообщения
Вы не можете редактировать свои сообщения
Вы не можете удалять свои сообщения
Вы не можете добавлять вложения

Перейти:  
Для Мосгорсуда, Роскомнадзора и рекламодателей: mosgorsud-torrent[собачка]yandex.ru
 Вход
ppkBB3cker v.2 © 2008-2014 @ PPK
[ Time : 0.064s | 16 Queries | GZIP : Off ]

Торрент трекер RUTOR.IN, Не можете зайти на rutor.org? Какой новый адрес рутор? Какое зеркало рутор? Не работает rutor.org и зеркала? Тогда наш торрент специально для вас. Rutor.in неофициальное зеркало rutor. В случае если у Вас заблокирован rutor или вдруг Вы не можете на него зайти, то Вы без труда сможете скачать бесплатно и без рекламы последние новинки кино, игр, сериалов и прочего у нас, на Rutor.in. Не нужно использовать прокси, чтобы зайти на рутор, достаточно воспользоваться нашим ресурсом. Все новые фильмы, игры, сериалы, книги и музыка за 2013 и 2014 годы через торрент бесплатно. Скачивайте фильмы в хорошем качестве, игры для пк, xbox, playstation без регистрации. У нас вы найдете новые Зарубежные сериалы и Русские сериалы 2013, 2014, 2015 годов. Оставайтесь с нами, качайте любимые фильмы, игры, сериалы, книги и музыку.