img image001 image001 image001 image001 image001 image001 image001 image001 image001 image001 image001 image001 image001 image001 image001

Planets Sun Sun Sun
Статистика раздачи
Автор: Снежана | Размер: 3.81 ГБ | Добавлен: 27 июл 2013
Раздают: 1    Качают: 2
Скачать торрент
Скачать торрент
Описание торрента

СообщениеДобавлено: 27 июл 2013 

#77

Информация о фильме
Название: Дельфин: История мечтателя
Оригинальное название: El delfin: La historia de un sonador
Год выхода: 2009
Жанр: приключения, семейный, мультфильм
Режиссер: Эдуардо Шульдт
В ролях: Дельфин, Осьминог, Акула, Краб, Рыбки

О фильме:
Удивительная история дельфина Даниэля, который отправляется в невероятное путешествию по океану, где его подстерегают различные опасности.

Выпущено: Германия / Италия / Перу, DDG
Продолжительность: 01:29:20
Озвучивание: Профессиональное (многоголосое) [лицензия]

Файл:
Видео
Идентификатор : 224 (0xE0)
Формат : MPEG Video
Версия формата : Version 2
Профиль формата : Main@Main
Параметр BVOP формата : Да
Параметр матрицы формата : По умолчанию
Параметры GOP формата : M=3, N=12
Продолжительность : 25 м.
Вид битрейта : Переменный
Битрейт : 5002 Кбит/сек
Номинальный битрейт : 7500 Кбит/сек
Ширина : 720 пикс.
Высота : 576 пикс.
Соотношение сторон : 16:9
Частота кадров : 25,000 кадр/сек
Стандарт вещания : PAL
Цветовое пространство : YUV
Подвыборка цветности : 4:2:0
Битовая глубина : 8 бит
Тип развёртки : Чересстрочная
Порядок развёртки : Нижнее поле первое
Метод сжатия : С потерями
Бит/(Пиксели*Кадры) : 0.482
Размер потока : 921 Мбайт (90%)

Аудио #1
Идентификатор : 189 (0xBD)-128 (0x80)
Формат : AC-3
Формат/Информация : Audio Coding 3
Расширение режима : CM (complete main)
Режим смешивания : DVD-Video
Продолжительность : 25 м.
Вид битрейта : Постоянный
Битрейт : 224 Кбит/сек
Каналы : 2 канала
Расположение каналов : Front: L R
Частота : 48,0 КГц
Битовая глубина : 16 бит
Метод сжатия : С потерями
Размер потока : 41,2 Мбайт (4%)

Аудио #2
Идентификатор : 189 (0xBD)-129 (0x81)
Формат : AC-3
Формат/Информация : Audio Coding 3
Расширение режима : CM (complete main)
Режим смешивания : DVD-Video
Продолжительность : 25 м.
Вид битрейта : Постоянный
Битрейт : 224 Кбит/сек
Каналы : 2 канала
Расположение каналов : Front: L R
Частота : 48,0 КГц
Битовая глубина : 16 бит
Метод сжатия : С потерями
Размер потока : 41,2 Мбайт (4%)

Формат: DVD Video
Качество: DVD R5
Видео: PAL 16:9 (720x576)
Аудио: Russian / English (Dolby AC3, 2 ch)




   Похожие торренты   Торрент   Размер 
В этой теме нет новых непрочитанных сообщений. Дельфин: История мечтателя / El delfín: La historia de un soñador (2009) HDRip-AVC от ExKinoRay

21 | 6

1.63 ГБ

В этой теме нет новых непрочитанных сообщений. Дельфин: История мечтателя / El delfín: La historia de un soñador (2009) HDRip от ExKinoRay

4 | 6

1.08 ГБ

В этой теме нет новых непрочитанных сообщений. Дельфин: История мечтателя / The Dolphin: Story of a Dreamer / El delfin: La historia de un sonador (2009) BDRip 720p от FREEISLAND

6 | 4

2.8 ГБ

В этой теме нет новых непрочитанных сообщений. Дельфин: История мечтателя / The Dolphin: Story of a Dreamer (2009) DVDRip

28 | 8

1.37 ГБ

В этой теме нет новых непрочитанных сообщений. Яношик: Правдивая история / Janosik. Prawdziwa historia (2009) DVDRip

0 | 3

1.37 ГБ

В этой теме нет новых непрочитанных сообщений. Медвежья история / Historia de un oso (2014) WEB-DL 1080p

31 | 3

1.11 ГБ

В этой теме нет новых непрочитанных сообщений. Сексуальная история О / Historia sexual de O (1984) DVDRip | A

355 | 59

878.95 МБ




Вы не можете начинать темы
Вы не можете отвечать на сообщения
Вы не можете редактировать свои сообщения
Вы не можете удалять свои сообщения
Вы не можете добавлять вложения

Перейти:  
Для Мосгорсуда, Роскомнадзора и рекламодателей: mosgorsud-torrent[собачка]yandex.ru
 Вход
ppkBB3cker v.2 © 2008-2014 @ PPK
[ Time : 0.037s | 15 Queries | GZIP : Off ]

cron