img image001 image001 image001 image001 image001 image001 image001 image001 image001 image001 image001 image001 image001 image001 image001

Planets Sun Sun Sun
Статистика раздачи
Автор: Снежана | Размер: 4.1 ГБ | Добавлен: 27 июл 2013
Раздают: 0    Качают: 2
Скачать торрент
Скачать торрент
Описание торрента

СообщениеДобавлено: 27 июл 2013 

#77

Информация о фильме
Название: Чудесные цветочки
Оригинальное название: Чудесные цветочки. Сборник мультфильмов
Год выхода: 1948-1984
Жанр: семейный, мультфильмы
Режиссер: Лев Атаманов, Михаил Цехановский, Иван Давыдов, Стела Аристакесова, Роман Качанов
В ролях: Наталья Защипина, Татьяна Барышева, Борис Омехин, Галина Иванова, Людмила Гнилова, Вячеслав Богачёв, Мария Виноградова, Светлана Харлап, Нина Корниенко, Владимир Гуляев, Мария Виноградова, Агарь Власова, Нина Зорская, Люсьена Овчинникова, М. Громова, Тамара Дмитриева... (озвучивание мультфильмов)

О фильме:
Поучительные и комичные истории о мультгероях которые объединяет только одно - всех их связывают волшебные цветы...

Содержание:

01. Аленький цветочек
02. Цветик - семицветик
03. Ночной цветок
04. Василек
05. Последний лепесток

Выпущено: СССР
Продолжительность: 01:42:09
Перевод: Профессиональный (оригинал)

Файл:
Видео
Идентификатор : 224 (0xE0)
Формат : MPEG Video
Версия формата : Version 2
Профиль формата : Main@Main
Параметр BVOP формата : Да
Параметр матрицы формата : По умолчанию
Параметры GOP формата : M=3, N=12
Продолжительность : 24 м.
Вид битрейта : Переменный
Битрейт : 5427 Кбит/сек
Номинальный битрейт : 6000 Кбит/сек
Ширина : 720 пикс.
Высота : 576 пикс.
Соотношение сторон : 4:3
Частота кадров : 25,000 кадр/сек
Стандарт вещания : PAL
Цветовое пространство : YUV
Подвыборка цветности : 4:2:0
Битовая глубина : 8 бит
Тип развёртки : Чересстрочная
Порядок развёртки : Верхнее поле первое
Метод сжатия : С потерями
Бит/(Пиксели*Кадры) : 0.523
Размер потока : 969 Мбайт (95%)

Аудио
Идентификатор : 189 (0xBD)-128 (0x80)
Формат : AC-3
Формат/Информация : Audio Coding 3
Расширение режима : CM (complete main)
Режим смешивания : DVD-Video
Продолжительность : 24 м.
Вид битрейта : Постоянный
Битрейт : 192 Кбит/сек
Каналы : 2 канала
Расположение каналов : Front: L R
Частота : 48,0 КГц
Битовая глубина : 16 бит
Метод сжатия : С потерями
Задержка видео : -80 мс.
Размер потока : 34,3 Мбайт (3%)

Формат: DVD Video
Качество: DVD5
Видео: PAL 4:3 (720x576) VBR
Аудио: Russian AC3 48000Hz 192kb/s stereo(2/0)




   Похожие торренты   Торрент   Размер 
В этой теме нет новых непрочитанных сообщений. Сборник мультфильмов. Чудесные цветочки (1948-1984) DVDRip от Киномагия

19 | 5

1.25 ГБ

В этой теме нет новых непрочитанных сообщений. Сборник мультфильмов - «Лесные сказки - 2» (1948-1956) DVD5

71 | 7

4.37 ГБ

В этой теме нет новых непрочитанных сообщений. Сборник мультфильмов: Каштанка. Чемпион. Полет на луну (1948-1953) DVD5

21 | 4

2.46 ГБ

В этой теме нет новых непрочитанных сообщений. Сборник мультфильмов (1948-1952) DVDRip от New-Team

305 | 37

4.28 ГБ

В этой теме нет новых непрочитанных сообщений. Сборник мультфильмов (1948-1952) DVDRip-AVC от New-Team

556 | 30

4.27 ГБ

В этой теме нет новых непрочитанных сообщений. Сказки про Машеньку. Сборник мультфильмов (1948-1985) DVDRip

47 | 10

910.72 МБ

В этой теме нет новых непрочитанных сообщений. Сборник - Коллекция советских мультфильмов (1948-1983) DVDRip

1995 | 340

12.02 ГБ




Вы не можете начинать темы
Вы не можете отвечать на сообщения
Вы не можете редактировать свои сообщения
Вы не можете удалять свои сообщения
Вы не можете добавлять вложения

Перейти:  
Для Мосгорсуда, Роскомнадзора и рекламодателей: mosgorsud-torrent[собачка]yandex.ru
 Вход
ppkBB3cker v.2 © 2008-2014 @ PPK
[ Time : 0.084s | 15 Queries | GZIP : On ]

Торрент трекер RUTOR.IN, Не можете зайти на rutor.org? Какой новый адрес рутор? Какое зеркало рутор? Не работает rutor.org и зеркала? Тогда наш торрент специально для вас. Rutor.in неофициальное зеркало rutor. В случае если у Вас заблокирован rutor или вдруг Вы не можете на него зайти, то Вы без труда сможете скачать бесплатно и без рекламы последние новинки кино, игр, сериалов и прочего у нас, на Rutor.in. Не нужно использовать прокси, чтобы зайти на рутор, достаточно воспользоваться нашим ресурсом. Все новые фильмы, игры, сериалы, книги и музыка за 2013 и 2014 годы через торрент бесплатно. Скачивайте фильмы в хорошем качестве, игры для пк, xbox, playstation без регистрации. У нас вы найдете новые Зарубежные сериалы и Русские сериалы 2013, 2014, 2015 годов. Оставайтесь с нами, качайте любимые фильмы, игры, сериалы, книги и музыку.