img image001 image001 image001 image001 image001 image001 image001 image001 image001 image001 image001 image001 image001 image001 image001

Planets Sun Sun Sun
Статистика раздачи
Автор: Снежана | Размер: 4.26 ГБ | Добавлен: 27 июл 2013
Раздают: 19    Качают: 5
Скачать торрент
Скачать торрент
Описание торрента

СообщениеДобавлено: 27 июл 2013 

#77

Информация о фильме
Название: Волк и козлята
Оригинальное название: Волк и козлята. Сборник мультфильмов
Год выхода: 1972-1986
Жанр: семейный, мультфильмы
Режиссер: Леонид Аристов, Иосиф Доукша, Майя Бузинова, Юлиан Калишер, Олег Чуркин, Анатолий Резников
В ролях: Татьяна Никитина, Сергей Никитин, Александр Очаретянский, А. Минаков, Григорий Толчинский, Юрий Пузырев, Н. Авдеева, Аня Рыбникова Татьяна Дасковская, Гарри Бардин (озвучивание мультфильмов)

О фильме:
О дружбе и взаимовыручке, о волшебной силе музыки - расскажут герои мультфильмов...

Выпущено: СССР
Продолжительность: 01:28:53
Перевод: Профессиональный (оригинал)

Содержание:

1. Волк и семеро козлят на новый лад
2. Новоселье братца Кролика
3. Большой секрет для маленькой компании
4. Медвежонок Римцимци
5. Найда
6. Дом для Леопарда
Файл:
Видео
Идентификатор : 224 (0xE0)
Формат : MPEG Video
Версия формата : Version 2
Профиль формата : Main@Main
Параметр BVOP формата : Да
Параметр матрицы формата : По умолчанию
Продолжительность : 10 м.
Вид битрейта : Постоянный
Битрейт : 12,7 Мбит/сек
Номинальный битрейт : 9300 Кбит/сек
Ширина : 720 пикс.
Высота : 576 пикс.
Соотношение сторон : 4:3
Частота кадров : 25,000 кадр/сек
Стандарт вещания : PAL
Цветовое пространство : YUV
Подвыборка цветности : 4:2:0
Битовая глубина : 8 бит
Тип развёртки : Чересстрочная
Порядок развёртки : Нижнее поле первое
Метод сжатия : С потерями
Бит/(Пиксели*Кадры) : 1.226
Размер потока : 989 Мбайт (97%)

Аудио
Идентификатор : 189 (0xBD)-128 (0x80)
Формат : AC-3
Формат/Информация : Audio Coding 3
Расширение режима : CM (complete main)
Режим смешивания : DVD-Video
Продолжительность : 3 с. 8 мс.
Вид битрейта : Постоянный
Битрейт : 192 Кбит/сек
Каналы : 2 канала
Расположение каналов : Front: L R
Частота : 48,0 КГц
Битовая глубина : 16 бит
Метод сжатия : С потерями
Размер потока : 70,5 Кбайт (0%)

Формат: DVD Video
Качество: DVD5
Видео: PAL 4:3 (720x576@768x576) VBR
Аудио: Russian AC3 48000Hz 192kb/s stereo(2/0)





   Похожие торренты   Торрент   Размер 
В этой теме нет новых непрочитанных сообщений. Сборник мультфильмов - Волк и козлята (1972-1986) DVDRip от Киномагия

102 | 9

1.36 ГБ

В этой теме нет новых непрочитанных сообщений. Сборник мультфильмов-3 (1972-1991) DVD5

23 | 37

4.36 ГБ

В этой теме нет новых непрочитанных сообщений. Сборник мультфильмов - В гости к сказке: Чудеса под Новый Год (1972-1986) DVDRip от Torrent-Xzona

69 | 10

1.36 ГБ

В этой теме нет новых непрочитанных сообщений. Сборник мультфильмов-6 (1954 - 1986) DVD5

4 | 3

4.34 ГБ

В этой теме нет новых непрочитанных сообщений. Приключения поросенка Фунтика / Сборник мультфильмов (1986-1988) DVD5

48 | 8

3.7 ГБ

В этой теме нет новых непрочитанных сообщений. Сборник мультфильмов - Падал прошлогодний снег (1981-1986) DVD5 от Sauliux

94 | 14

4.18 ГБ

В этой теме нет новых непрочитанных сообщений. Волк и теленок. Сборник мультфильмов (1969-1993) DVDRip от Киномагия

404 | 19

1.11 ГБ




Вы не можете начинать темы
Вы не можете отвечать на сообщения
Вы не можете редактировать свои сообщения
Вы не можете удалять свои сообщения
Вы не можете добавлять вложения

Перейти:  
Для Мосгорсуда, Роскомнадзора и рекламодателей: mosgorsud-torrent[собачка]yandex.ru
 Вход
ppkBB3cker v.2 © 2008-2014 @ PPK
[ Time : 0.051s | 15 Queries | GZIP : Off ]

Торрент трекер RUTOR.IN, Не можете зайти на rutor.org? Какой новый адрес рутор? Какое зеркало рутор? Не работает rutor.org и зеркала? Тогда наш торрент специально для вас. Rutor.in неофициальное зеркало rutor. В случае если у Вас заблокирован rutor или вдруг Вы не можете на него зайти, то Вы без труда сможете скачать бесплатно и без рекламы последние новинки кино, игр, сериалов и прочего у нас, на Rutor.in. Не нужно использовать прокси, чтобы зайти на рутор, достаточно воспользоваться нашим ресурсом. Все новые фильмы, игры, сериалы, книги и музыка за 2013 и 2014 годы через торрент бесплатно. Скачивайте фильмы в хорошем качестве, игры для пк, xbox, playstation без регистрации. У нас вы найдете новые Зарубежные сериалы и Русские сериалы 2013, 2014, 2015 годов. Оставайтесь с нами, качайте любимые фильмы, игры, сериалы, книги и музыку.
cron