img image001 image001 image001 image001 image001 image001 image001 image001 image001 image001 image001 image001 image001 image001 image001

Planets Sun Sun Sun
Статистика раздачи
Автор: Снежана | Размер: 1.45 ГБ | Добавлен: 27 июл 2013
Раздают: 4    Качают: 3
Скачать торрент
Скачать торрент
Описание торрента

СообщениеДобавлено: 27 июл 2013 

#77

Информация о фильме
Название: Ловушка для кошек
Оригинальное название: Macskafogó
Год выхода: 1986
Жанр: мультфильм, комедия, приключения
Режиссер: Бела Терновски
В ролях: Миклош Бенедек, Дьюла Бодроги, Илона Береш, Петер Хауманн, Андраш Керн, Ференц Каллаи, János Körmendi, István Mikó, Карой Мекс, Вера Пап

О фильме:
Кошачьи банды, объединившись в преступные группировки, готовятся к решающей битве с мышами. Мыши, узнав об этом, сначала загрустили, но потом стало известно, что некий профессор Фусимиси изобрел аппарат, позволяющий сделать кошек беспомощными. В путь к профессору отправляется лучший мышиный агент. Коты через своих осведомителей получают сведения об опасности, и за мышиным агентом отправляются крысы-убийцы…

Страна: Канада, Германия (ФРГ), Венгрия
Студия: Pannónia Filmmstúdió
Продолжительность: 01:31:45
Перевод: Дубляжная группа киностудии «Союзмультфильм» 1988 г. + венгерская звуковая дорожка

Общее
Уникальный идентификатор : 170602866535848949283436551761122584912 (0x8058EABBA909F5DDBA51739E82746950)
Полное имя : N:filmUAGetLovushka.Dlya.Koshek.1986.DVDRip.AVC.Alex_CH.UAGet.mkv
Формат : Matroska
Размер файла : 1,45 Гбайт
Продолжительность : 1 ч. 31 м.
Общий поток : 2270 Кбит/сек
Дата кодирования : UTC 2011-05-28 15:00:14
Программа кодирования : mkvmerge v4.6.0 ('Still Crazy After All These Years') built on Mar 10 2011 02:50:32
Библиотека кодирования : libebml v1.2.0 + libmatroska v1.1.0

Видео
Идентификатор : 1
Формат : AVC
Формат/Информация : Advanced Video Codec
Профиль формата : High@L3.0
Параметр CABAC формата : Да
Параметр ReFrames формата : 4 кадры
Параметры GOP формата : M=1, N=16
Идентификатор кодека : V_MPEG4/ISO/AVC
Продолжительность : 1 ч. 31 м.
Битрейт : 1884 Кбит/сек
Ширина : 720 пикс.
Высота : 576 пикс.
Соотношение сторон : 4:3
Частота кадров : 25,000 кадр/сек
Стандарт вещания : PAL
Цветовое пространство : YUV
Подвыборка цветности : 4:2:0
Битовая глубина : 8 бит
Тип развёртки : Прогрессивная
Бит/(Пиксели*Кадры) : 0.182
Размер потока : 1,18 Гбайт (81%)
Библиотека кодирования : x264 core 114 r1924 08d04a4
Настройки программы : cabac=1 / ref=3 / deblock=1:0:0 / analyse=0x3:0x113 / me=hex / subme=7 / psy=1 / psy_rd=1.00:0.00 / mixed_ref=1 / me_range=16 / chroma_me=1 / trellis=1 / 8x8dct=1 / cqm=0 / deadzone=21,11 / fast_pskip=1 / chroma_qp_offset=-2 / threads=6 / sliced_threads=0 / nr=0 / decimate=1 / interlaced=0 / constrained_intra=0 / bframes=3 / b_pyramid=2 / b_adapt=1 / b_bias=0 / direct=1 / weightb=1 / open_gop=0 / weightp=2 / keyint=250 / keyint_min=25 / scenecut=40 / intra_refresh=0 / rc_lookahead=40 / rc=2pass / mbtree=1 / bitrate=1884 / ratetol=1.0 / qcomp=0.60 / qpmin=0 / qpmax=69 / qpstep=4 / cplxblur=20.0 / qblur=0.5 / ip_ratio=1.40 / aq=1:1.00

Аудио #1
Идентификатор : 2
Формат : AC-3
Формат/Информация : Audio Coding 3
Расширение режима : CM (complete main)
Идентификатор кодека : A_AC3
Продолжительность : 1 ч. 31 м.
Вид битрейта : Постоянный
Битрейт : 192 Кбит/сек
Канал(ы) : 2 канала(ов)
Расположение каналов : Front: L R
Частота : 48,0 КГц
Битовая глубина : 16 бит
Метод сжатия : С потерями
Размер потока : 126 Мбайт (8%)
Заголовок : Русский
Язык : Russian

Аудио #2
Идентификатор : 3
Формат : AC-3
Формат/Информация : Audio Coding 3
Расширение режима : CM (complete main)
Идентификатор кодека : A_AC3
Продолжительность : 1 ч. 31 м.
Вид битрейта : Постоянный
Битрейт : 192 Кбит/сек
Канал(ы) : 2 канала(ов)
Расположение каналов : Front: L R
Частота : 48,0 КГц
Битовая глубина : 16 бит
Метод сжатия : С потерями
Размер потока : 126 Мбайт (8%)
Заголовок : Венгерский
Язык : Hungarian

Текст
Идентификатор : 4
Формат : VobSub
Режим смешивания : zlib
Идентификатор кодека : S_VOBSUB
Идентификатор кодека/Информация : The same subtitle format used on DVDs
Язык : Russian

Меню
00:00:00.000 : :Chapter 01
00:07:38.880 : :Chapter 02
00:15:17.760 : :Chapter 03
00:22:56.640 : :Chapter 04
00:30:35.040 : :Chapter 05
00:38:13.920 : :Chapter 06
00:45:52.800 : :Chapter 07
00:53:31.680 : :Chapter 08
01:01:10.080 : :Chapter 09
01:08:48.960 : :Chapter 10
01:16:27.840 : :Chapter 11
01:24:06.720 : :Chapter 12


Файл
Кодек: MKV, H.264
Качество: DVDRip-AVC
Видео: H.264/MKV, 720x576, 1884 kbps, 25.000 fps
Звук:
Аудио1 : русский, AC-3, 48000 Hz, 192 kbps, 2.0 ch
Аудио2 : венгерский, AC-3, 48000 Hz, 192 kbps, 2.0 ch

Релиз от:
Автор рипа: Alex_CH



   Похожие торренты   Торрент   Размер 
В этой теме нет новых непрочитанных сообщений. Ловушка для кошек 2: Кот Апокалипсиса / Macskafogó 2 - A sátán macskája (2007) DVDRip-AVC от UAGet

66 | 5

1.46 ГБ

В этой теме нет новых непрочитанных сообщений. Ловушка для кошек / Macskafogo / Cat City (1986) DVDRip от Youtracker

176 | 9

1.46 ГБ

В этой теме нет новых непрочитанных сообщений. Ловушка для кошек 2: Кот Сатаны / Catcher: Cat City 2 (2007) DVDRip

4 | 11

694.1 МБ

В этой теме нет новых непрочитанных сообщений. Ловушка для кошек 2. Kот Сатаны / Macskafogо 2 - A satan macskaja (2007) DVDRip

8 | 6

1.41 ГБ

В этой теме нет новых непрочитанных сообщений. Кин-дза-дза! (1986) DVDRip-AVC от UAGet

8 | 2

3.3 ГБ

В этой теме нет новых непрочитанных сообщений. Истребитель кошек / Ловец кошек / Cat Chaser (1989) DVDRip

0 | 3

1.12 ГБ

В этой теме нет новых непрочитанных сообщений. Ловушка для родителей 2 / The Parent Trap II (1986) DVDRip | P

43 | 10

1.36 ГБ




Вы не можете начинать темы
Вы не можете отвечать на сообщения
Вы не можете редактировать свои сообщения
Вы не можете удалять свои сообщения
Вы не можете добавлять вложения

Перейти:  
Для Мосгорсуда, Роскомнадзора и рекламодателей: mosgorsud-torrent[собачка]yandex.ru
 Вход
ppkBB3cker v.2 © 2008-2014 @ PPK
[ Time : 0.032s | 15 Queries | GZIP : Off ]

Торрент трекер RUTOR.IN, Не можете зайти на rutor.org? Какой новый адрес рутор? Какое зеркало рутор? Не работает rutor.org и зеркала? Тогда наш торрент специально для вас. Rutor.in неофициальное зеркало rutor. В случае если у Вас заблокирован rutor или вдруг Вы не можете на него зайти, то Вы без труда сможете скачать бесплатно и без рекламы последние новинки кино, игр, сериалов и прочего у нас, на Rutor.in. Не нужно использовать прокси, чтобы зайти на рутор, достаточно воспользоваться нашим ресурсом. Все новые фильмы, игры, сериалы, книги и музыка за 2013 и 2014 годы через торрент бесплатно. Скачивайте фильмы в хорошем качестве, игры для пк, xbox, playstation без регистрации. У нас вы найдете новые Зарубежные сериалы и Русские сериалы 2013, 2014, 2015 годов. Оставайтесь с нами, качайте любимые фильмы, игры, сериалы, книги и музыку.
cron