img image001 image001 image001 image001 image001 image001 image001 image001 image001 image001 image001 image001 image001 image001 image001

Planets Sun Sun Sun
Статистика раздачи
Автор: Снежана | Размер: 2.18 ГБ | Добавлен: 27 июл 2013
Раздают: 2    Качают: 3
Скачать торрент
Скачать торрент
Описание торрента

СообщениеДобавлено: 27 июл 2013 

Гномео и Джульетта / Gnomeo and Juliet (2011) BDRip-AVC
от DHT-Movies

#77

Информация о фильме
Название: Гномео и Джульетта
Оригинальное название: Gnomeo and Juliet
Год выхода: 2011
Жанр: Мультфильм, фэнтези, мелодрама, комедия
Режиссер: Келли Эсбёри
В ролях: Джеймс МакЭвой, Эмили Блант, Эшли Дженсен, Майкл Кейн, Мэтт Лукас, Джим Каммингс, Мэгги Смит, Джейсон Стэтхэм, Оззи Осборн, Стефен Мерчант

О фильме:
Интерпретация пьесы Уильяма Шекспира, в которой противоборствуют семьи садовых гномов и гномов домашних.

Страна: США, Великобритания
Студия: Touchstone Pictures
Продолжительность: 01:23:51
Перевод: Дублированный + Оригинал


Релиз от: | by ATi


Файл
Кодек: h.264
Качество: BDRip-AVC
Видео: h.264@L4.1, 1024x552 , 23.976 fps, ~2961 kbps avg, 0.213 bit/pixel.
Аудио 1: 48 kHz, AC3 Dolby Digital, 3/2 (L,C,R,l,r) + LFE ch, ~384.00 kbps avg | Дубляж
Аудио 2: 48 kHz, AC3 Dolby Digital, 3/2 (L,C,R,l,r) + LFE ch, ~384.00 kbps avg | Оригинал
Субтитры: Русские, Английские (в контейнере)

Format : Matroska
File size : 2.18 GiB
Duration : 1h 23mn
Overall bit rate : 3 730 Kbps
Movie name : DHT-Movies
Writing application : mkvmerge v4.6.0 ('Still Crazy After All These Years') ñáîðêà îò Apr 1 2011 21:01:49
Writing library : libebml v1.2.0 + libmatroska v1.1.0
Video #1
ID : 1
Format : AVC
Format/Info : Advanced Video Codec
Format profile : High@L4.1
Format settings, CABAC : Yes
Format settings, ReFrames : 7 frames
Muxing mode : Container profile=Unknown@4.1
Codec ID : V_MPEG4/ISO/AVC
Duration : 1h 23mn
Bit rate : 2 961 Kbps
Width : 1 024 pixels
Height : 552 pixels
Display aspect ratio : 1.855
Frame rate : 23.976 fps
Resolution : 24 bits
Colorimetry : 4:2:0
Scan type : Progressive
Bits/(Pixel*Frame) : 0.213
Stream size : 1.69 GiB (77%)
Writing library : x264 core 115 r1937 aa21558
Encoding settings : cabac=1 / ref=7 / deblock=1:-2:-2 / analyse=0x3:0x113 / me=umh / subme=9 / psy=1 / psy_rd=1.00:0.00 / mixed_ref=1 / me_range=32 / chroma_me=1 / trellis=2 / 8x8dct=1 / cqm=0 / deadzone=21,11 / fast_pskip=1 / chroma_qp_offset=-2 / threads=6 / sliced_threads=0 / nr=0 / decimate=1 / interlaced=0 / bluray_compat=0 / constrained_intra=0 / bframes=7 / b_pyramid=2 / b_adapt=2 / b_bias=0 / direct=1 / weightb=1 / open_gop=0 / weightp=2 / keyint=250 / keyint_min=23 / scenecut=40 / intra_refresh=0 / rc_lookahead=40 / rc=2pass / mbtree=1 / bitrate=2961 / ratetol=1.0 / qcomp=0.60 / qpmin=0 / qpmax=69 / qpstep=4 / cplxblur=20.0 / qblur=0.5 / ip_ratio=1.40 / aq=1:1.00
Audio #2
ID : 2
Format : AC-3
Format/Info : Audio Coding 3
Codec ID : A_AC3
Duration : 1h 23mn
Bit rate mode : Constant
Bit rate : 384 Kbps
Channel(s) : 6 channels
Channel positions : Front: L C R, Surround: L R, LFE
Sampling rate : 48.0 KHz
Stream size : 230 MiB (10%)
Title : Dub
Language : Russian
Audio #3
ID : 3
Format : AC-3
Format/Info : Audio Coding 3
Codec ID : A_AC3
Duration : 1h 23mn
Bit rate mode : Constant
Bit rate : 384 Kbps
Channel(s) : 6 channels
Channel positions : Front: L C R, Surround: L R, LFE
Sampling rate : 48.0 KHz
Stream size : 230 MiB (10%)
Title : Original
Text #4
ID : 4
Format : UTF-8
Codec ID : S_TEXT/UTF8
Codec ID/Info : UTF-8 Plain Text
Title : Russian
Language : Russian
Text #5
ID : 5
Format : UTF-8
Codec ID : S_TEXT/UTF8
Codec ID/Info : UTF-8 Plain Text
Title : English



   Похожие торренты   Торрент   Размер 
В этой теме нет новых непрочитанных сообщений. Гномео и Джульетта / Gnomeo & Juliet (2011) BDRip 1080p

87 | 7

4.38 ГБ

В этой теме нет новых непрочитанных сообщений. Гномео и Джульетта / Gnomeo & Juliet (2011) BDRip от HQCLUB

114 | 6

1.45 ГБ

В этой теме нет новых непрочитанных сообщений. Гномео и Джульетта / Gnomeo & Juliet (2011) BDRip от HQ-ViDEO

7 | 3

2.12 ГБ

В этой теме нет новых непрочитанных сообщений. Гномео и Джульетта / Gnomeo & Juliet (2011) BDRip от HELLYWOOD

4 | 2

1.68 ГБ

В этой теме нет новых непрочитанных сообщений. Гномео и Джульетта / Gnomeo and Juliet (2011) BDRip 720p от Freeisland

0 | 2

5.03 ГБ

В этой теме нет новых непрочитанных сообщений. Гномео и Джульетта / Gnomeo and Juliet (2011) BDrip 1080p | 3D-Video

2 | 2

4.32 ГБ

В этой теме нет новых непрочитанных сообщений. Гномео и Джульетта / Gnomeo & Juliet (2011) BDRip 1080i | Лицензия

3 | 3

5.73 ГБ




Вы не можете начинать темы
Вы не можете отвечать на сообщения
Вы не можете редактировать свои сообщения
Вы не можете удалять свои сообщения
Вы не можете добавлять вложения

Перейти:  
Для Мосгорсуда, Роскомнадзора и рекламодателей: mosgorsud-torrent[собачка]yandex.ru
 Вход
ppkBB3cker v.2 © 2008-2014 @ PPK
[ Time : 0.054s | 15 Queries | GZIP : Off ]

cron