img image001 image001 image001 image001 image001 image001 image001 image001 image001 image001 image001 image001 image001 image001 image001

Planets Sun Sun Sun
Статистика раздачи
Автор: Снежана | Размер: 1.46 ГБ | Добавлен: 27 июл 2013
Раздают: 66    Качают: 5
Скачать торрент
Скачать торрент
Описание торрента

СообщениеДобавлено: 27 июл 2013 

#77

Информация о фильме
Название: Ловушка для кошек 2: Кот Апокалипсиса
Оригинальное название: Macskafogó 2 - A sátán macskája
Год выхода: 2007
Жанр: мультфильм, комедия, приключения
Режиссер: Бела Терновски
В ролях: László Sinkó, Питер Рудольф, Миклош Бенедек, Петер Хауманн, György Dörner, Béla Stenczer, Петер Балаж, Матьяс Уштич, Gábor Reviczky, Иван Дарваш

О фильме:
События происходят через много лет после событий, описанных в первом фильме. Журналист Стенли Маус хочет найти известное по легендам древнее племя котов, затерянное в Африке. Он находит их, и мышиная цивилизация оказывается под угрозой. Специальный агент Ник Грабовский снова должен будет спасти мир…

Общее
Уникальный идентификатор : 200866884218442427709688228831938443645 (0x971D8E01D0D54B83A7D6BC7162B3797D)
Полное имя : N:filmUAGetLovushka.Dlya.Koshek.2.Kot.Apokalipsisa.2007.DVDRip.AVC.Alex_CH.UAGet.mkv
Формат : Matroska
Размер файла : 1,46 Гбайт
Продолжительность : 1 ч. 30 м.
Общий поток : 2308 Кбит/сек
Дата кодирования : UTC 2011-05-29 07:57:59
Программа кодирования : mkvmerge v4.6.0 ('Still Crazy After All These Years') built on Mar 10 2011 02:50:32
Библиотека кодирования : libebml v1.2.0 + libmatroska v1.1.0

Видео
Идентификатор : 1
Формат : AVC
Формат/Информация : Advanced Video Codec
Профиль формата : High@L3.0
Параметр CABAC формата : Да
Параметр ReFrames формата : 4 кадры
Идентификатор кодека : V_MPEG4/ISO/AVC
Продолжительность : 1 ч. 30 м.
Битрейт : 1666 Кбит/сек
Ширина : 720 пикс.
Высота : 576 пикс.
Соотношение сторон : 16:9
Частота кадров : 25,000 кадр/сек
Стандарт вещания : PAL
Цветовое пространство : YUV
Подвыборка цветности : 4:2:0
Битовая глубина : 8 бит
Тип развёртки : Прогрессивная
Бит/(Пиксели*Кадры) : 0.161
Размер потока : 1,02 Гбайт (70%)
Библиотека кодирования : x264 core 114 r1924 08d04a4
Настройки программы : cabac=1 / ref=3 / deblock=1:0:0 / analyse=0x3:0x113 / me=hex / subme=7 / psy=1 / psy_rd=1.00:0.00 / mixed_ref=1 / me_range=16 / chroma_me=1 / trellis=1 / 8x8dct=1 / cqm=0 / deadzone=21,11 / fast_pskip=1 / chroma_qp_offset=-2 / threads=6 / sliced_threads=0 / nr=0 / decimate=1 / interlaced=0 / constrained_intra=0 / bframes=3 / b_pyramid=2 / b_adapt=1 / b_bias=0 / direct=1 / weightb=1 / open_gop=0 / weightp=2 / keyint=250 / keyint_min=25 / scenecut=40 / intra_refresh=0 / rc_lookahead=40 / rc=2pass / mbtree=1 / bitrate=1666 / ratetol=1.0 / qcomp=0.60 / qpmin=0 / qpmax=69 / qpstep=4 / cplxblur=20.0 / qblur=0.5 / ip_ratio=1.40 / aq=1:1.00

Аудио #1
Идентификатор : 2
Формат : AC-3
Формат/Информация : Audio Coding 3
Расширение режима : CM (complete main)
Идентификатор кодека : A_AC3
Продолжительность : 1 ч. 30 м.
Вид битрейта : Постоянный
Битрейт : 448 Кбит/сек
Канал(ы) : 6 канала(ов)
Расположение каналов : Front: L C R, Side: L R, LFE
Частота : 48,0 КГц
Битовая глубина : 16 бит
Метод сжатия : С потерями
Размер потока : 289 Мбайт (19%)
Заголовок : 448 kbps, 5.1 ch
Язык : Russian

Аудио #2
Идентификатор : 3
Формат : AC-3
Формат/Информация : Audio Coding 3
Расширение режима : CM (complete main)
Идентификатор кодека : A_AC3
Продолжительность : 1 ч. 30 м.
Вид битрейта : Постоянный
Битрейт : 192 Кбит/сек
Канал(ы) : 2 канала(ов)
Расположение каналов : Front: L R
Частота : 48,0 КГц
Битовая глубина : 16 бит
Метод сжатия : С потерями
Размер потока : 124 Мбайт (8%)
Заголовок : 192 kbps, 2.0 ch
Язык : Russian

Меню
00:00:00.000 : :Chapter 01
00:06:27.080 : :Chapter 02
00:12:53.920 : :Chapter 03
00:19:20.480 : :Chapter 04
00:25:47.400 : :Chapter 05
00:32:14.240 : :Chapter 06
00:38:40.880 : :Chapter 07
00:45:07.600 : :Chapter 08
00:51:34.760 : :Chapter 09
00:58:01.240 : :Chapter 10
01:04:28.240 : :Chapter 11
01:10:54.960 : :Chapter 12
01:17:22.000 : :Chapter 13
01:23:48.840 : :Chapter 14



Страна: Венгрия
Студия: A Vodafone Bemutatja
Продолжительность: 01:30:15
Перевод: профессиональный полное дублирование

Файл
Кодек: MKV, H.264
Качество: DVDRip-AVC
Видео: MPEG4 Video (H264), 720х576@1024х576, 1666 Kbps, 25.000 fps
Звук:
Аудио 1: русский, AC-3, 48000Hz, 448 kbps, 6ch
Аудио 2: русский, AC-3, 48000Hz, 192 kbps, 2ch

Релиз от:
Автор рипа: Alex_CH



   Похожие торренты   Торрент   Размер 
В этой теме нет новых непрочитанных сообщений. Ловушка для кошек 2. Kот Сатаны / Macskafogо 2 - A satan macskaja (2007) DVDRip

8 | 6

1.41 ГБ

В этой теме нет новых непрочитанных сообщений. Ловушка для кошек / Macskafogó (1986) DVDRip-AVC от UAGet

4 | 3

1.45 ГБ

В этой теме нет новых непрочитанных сообщений. Ловушка для кошек / Macskafogo / Cat City (1986) DVDRip от Youtracker

176 | 9

1.46 ГБ

В этой теме нет новых непрочитанных сообщений. Ловушка для кошек 2: Кот Сатаны / Catcher: Cat City 2 (2007) DVDRip

4 | 11

694.1 МБ

В этой теме нет новых непрочитанных сообщений. Истребитель кошек / Ловец кошек / Cat Chaser (1989) DVDRip

0 | 3

1.12 ГБ

В этой теме нет новых непрочитанных сообщений. Страж апокалипсиса / Патрульные апокалипсиса / The Apocalypse Watch (1997) DVDRip от Youtracker | P

11 | 4

1.69 ГБ

В этой теме нет новых непрочитанных сообщений. Код апокалипсиса (2007) DVDRip

108 | 60

1.37 ГБ




Вы не можете начинать темы
Вы не можете отвечать на сообщения
Вы не можете редактировать свои сообщения
Вы не можете удалять свои сообщения
Вы не можете добавлять вложения

Перейти:  
Для Мосгорсуда, Роскомнадзора и рекламодателей: mosgorsud-torrent[собачка]yandex.ru
 Вход
ppkBB3cker v.2 © 2008-2014 @ PPK
[ Time : 0.045s | 14 Queries | GZIP : Off ]

Торрент трекер RUTOR.IN, Не можете зайти на rutor.org? Какой новый адрес рутор? Какое зеркало рутор? Не работает rutor.org и зеркала? Тогда наш торрент специально для вас. Rutor.in неофициальное зеркало rutor. В случае если у Вас заблокирован rutor или вдруг Вы не можете на него зайти, то Вы без труда сможете скачать бесплатно и без рекламы последние новинки кино, игр, сериалов и прочего у нас, на Rutor.in. Не нужно использовать прокси, чтобы зайти на рутор, достаточно воспользоваться нашим ресурсом. Все новые фильмы, игры, сериалы, книги и музыка за 2013 и 2014 годы через торрент бесплатно. Скачивайте фильмы в хорошем качестве, игры для пк, xbox, playstation без регистрации. У нас вы найдете новые Зарубежные сериалы и Русские сериалы 2013, 2014, 2015 годов. Оставайтесь с нами, качайте любимые фильмы, игры, сериалы, книги и музыку.