img image001 image001 image001 image001 image001 image001 image001 image001 image001 image001 image001 image001 image001 image001 image001

Planets Sun Sun Sun
Статистика раздачи
Автор: Снежана | Размер: 4.02 ГБ | Добавлен: 27 июл 2013
Раздают: 0    Качают: 30
Скачать торрент
Скачать торрент
Описание торрента

СообщениеДобавлено: 27 июл 2013 

#77
Информация о диске:
Название: Морячок Папай и Синдбад мореход
Оригинальное название: Popeye the Sailor meets - Sindbad the Sailor
Год выпуска: 1936-1953
Жанр: Мультипликация
Режиссер: Фриц Фреленг, Чак Джонс

О фильме: Один из наиболее любимых и узнаваемых мульт - персонажей всех времен - теперь на DVD. тот сборник мультфильмов включает самые популярные эпизоды такие как Морячок Папай и Синдбад мореход, и многие другие. Присоединяйтесь к приколам и приключениям Папая и его команды.

Выпущено: США / Paramount Pictures
Продолжительность: 01:11:28
Перевод: Профессиональный (многоголосый)

Список эпизодов:

01. Морячок Папай и Синдбад мореход
02. Удар навылет
03. Я не боюсь
04. Такси Тарви
05. Конец страхам
06. Страшный сон невесты
07. Наводнение в доме
08. Уроки этикета
09. Папая в президенты
10. Всегда на высоте
11. Снова в армии

Файл:
Видео
Идентификатор : 224 (0xE0)
Формат : MPEG Video
Версия формата : Version 2
Профиль формата : Main@Main
Параметр BVOP формата : Да
Параметр матрицы формата : По умолчанию
Параметры GOP формата : M=3, N=10
Продолжительность : 4 м. 32 с.
Вид битрейта : Постоянный
Битрейт : 29,3 Мбит/сек
Номинальный битрейт : 5900 Кбит/сек
Ширина : 720 пикс.
Высота : 480 пикс.
Соотношение сторон : 4:3
Частота кадров : 29,970 кадр/сек
Стандарт вещания : NTSC
Цветовое пространство : YUV
Подвыборка цветности : 4:2:0
Битовая глубина : 8 бит
Тип развёртки : Чересстрочная
Порядок развёртки : Верхнее поле первое
Метод сжатия : С потерями
Бит/(Пиксели*Кадры) : 2.828
Размер потока : 951 Мбайт (95%)

Аудио #1
Идентификатор : 189 (0xBD)-128 (0x80)
Формат : AC-3
Формат/Информация : Audio Coding 3
Расширение режима : CM (complete main)
Режим смешивания : DVD-Video
Продолжительность : 4 м. 32 с.
Вид битрейта : Постоянный
Битрейт : 448 Кбит/сек
Каналы : 2 канала
Расположение каналов : Front: L R
Частота : 48,0 КГц
Битовая глубина : 16 бит
Метод сжатия : С потерями
Размер потока : 14,5 Мбайт (1%)

Аудио #2
Идентификатор : 189 (0xBD)-129 (0x81)
Формат : AC-3
Формат/Информация : Audio Coding 3
Расширение режима : CM (complete main)
Режим смешивания : DVD-Video
Продолжительность : 4 м. 32 с.
Вид битрейта : Постоянный
Битрейт : 448 Кбит/сек
Каналы : 2 канала
Расположение каналов : Front: L R
Частота : 48,0 КГц
Битовая глубина : 16 бит
Метод сжатия : С потерями
Размер потока : 14,5 Мбайт (1%)

Качество: DVD
Формат: DVD-video
Видео: NTSC 4:3 (704x480) VBR
Аудио: Русский (Dolby AC3, 2 ch), английский (Dolby AC3, 2 ch)



   Похожие торренты   Торрент   Размер 
В этой теме нет новых непрочитанных сообщений. Морячок Папай и Синдбад мореход. Сборник мультфильмов / Popeye the Sailor meets - Sindbad the Sailor (1936-1954) DVDRip от Gold Cartoon KINOREAKTOR (Sheikn)

221 | 8

1.52 ГБ

В этой теме нет новых непрочитанных сообщений. Морячок Папай и Волшебная лампа Аладдина Сборник мультфильмов / Popeye the sailor. Aladdin and wonderful lamp (1936-1954) DVDRip от Gold Cartoon KINOREAKTOR (Sheikn)

16 | 4

1.59 ГБ

В этой теме нет новых непрочитанных сообщений. Синдбад-мореход (Капитан Синдбад) / Captain Sindbad (1963) DVDRip

400 | 26

1.45 ГБ

В этой теме нет новых непрочитанных сообщений. Морячок Папай: Али-Баба и сорок разбойников Сборник мультфильмов / Papeye the Soilor meets Ali Baba's Forty Thie (1936-1957) DVDRip от Gold Cartoon KINOREAKTOR Sheikn

18 | 197

1.55 ГБ

В этой теме нет новых непрочитанных сообщений. Синбад-мореход / Sinbad the Sailor (1947) DVDRip от Generalfilm

7 | 5

2.06 ГБ

В этой теме нет новых непрочитанных сообщений. Попай - моряк / Popeye the Sailor [001-123 из 123] (1933-1943) 8xDVD9 от Youtracker

1 | 4

48.72 ГБ

В этой теме нет новых непрочитанных сообщений. Синдбад Мореход (1991) FB2

20 | 1

2.66 МБ




Вы не можете начинать темы
Вы не можете отвечать на сообщения
Вы не можете редактировать свои сообщения
Вы не можете удалять свои сообщения
Вы не можете добавлять вложения

Перейти:  
Для Мосгорсуда, Роскомнадзора и рекламодателей: mosgorsud-torrent[собачка]yandex.ru
 Вход
ppkBB3cker v.2 © 2008-2014 @ PPK
[ Time : 0.067s | 15 Queries | GZIP : Off ]

Торрент трекер RUTOR.IN, Не можете зайти на rutor.org? Какой новый адрес рутор? Какое зеркало рутор? Не работает rutor.org и зеркала? Тогда наш торрент специально для вас. Rutor.in неофициальное зеркало rutor. В случае если у Вас заблокирован rutor или вдруг Вы не можете на него зайти, то Вы без труда сможете скачать бесплатно и без рекламы последние новинки кино, игр, сериалов и прочего у нас, на Rutor.in. Не нужно использовать прокси, чтобы зайти на рутор, достаточно воспользоваться нашим ресурсом. Все новые фильмы, игры, сериалы, книги и музыка за 2013 и 2014 годы через торрент бесплатно. Скачивайте фильмы в хорошем качестве, игры для пк, xbox, playstation без регистрации. У нас вы найдете новые Зарубежные сериалы и Русские сериалы 2013, 2014, 2015 годов. Оставайтесь с нами, качайте любимые фильмы, игры, сериалы, книги и музыку.