img image001 image001 image001 image001 image001 image001 image001 image001 image001 image001 image001 image001 image001 image001 image001

Planets Sun Sun Sun
Статистика раздачи
Автор: Снежана | Размер: 106.13 МБ | Добавлен: 27 июл 2013
Раздают: 31    Качают: 4
Скачать торрент
Скачать торрент
Описание торрента

СообщениеДобавлено: 27 июл 2013 


Аква Юнит Патрульная Команда | AUPS | Aqua Unit Patrol Squad
Год выпуска: 2011 | Страна: США (USA) | Продолжительность: 00:11:24 | Жанр: Мультсериал для взрослых
Перевод: Профессиональный (многоголосый закадровый) VO-Production | Режиссер: Matt Maiellaro
Описание: Аква Юнит – Патрульная Команда (англ. Aqua Unit Patrol Squad) это продолжение легендарного мультсериала Команда Фастфуд (англ. Aqua Teen Hunger Force). Шейк, Фрай и Тефтель – это удивительная троица, которая не может не находить на свою жопу приключений. И вот теперь они становятся детективами. Грозой преступного мира.

Качество: HDTVRip | Формат: AVI | Видео кодек: XviD | Аудио кодек: AC3
Видео: 720x400 (1.80:1) 23.976 fps XviD MPEG-4 1100 kbps avg 0.16 bit/pixel

Семпл
01. Allen, Part One / Аллен Часть 1
02. Allen, Part Two / Аллен Часть 2
03. Intervention / Вмешательство
04. Freedom Cobra / Кобра
05. The Creditor / Кредитор
06. Vampirus / Вампиры
Внимание! Раздача ведётся путём добавления новых серий; при каждом добавлении создётся новый торрент. Чтобы начать докачку новой серии, пользователям необходимо сделать следующее:
(1) остановить скачивание,
(2) удалить старый торрент у себя из клиента (старые серии удалять не надо),
(3) скачать новый торрент и запустить его у себя в клиенте вместо старого, при этом указать клиенту путь в старую папку куда и должно происходить скачивание новых серий.
Ваш клиент при этом должен произвести хеширование (проверку) старой папки (если не производит сам - помогите ему сделать это), и будет докачивать только те серии которых у вас ещё нет. Старые серии при этом не удаляются, а продолжают раздаваться!
Eсли вы уже удалили старые серии, то предотвратить повторную закачку старых серий можно, отжав галочку в соответсвующих местах при запуске нового торрента. По возможности, желательно не удалять старые серии как можно дольше чтобы релизёр не столько продолжал раздавать старые серии, а смог сконцентрироваться на новых.
General
Complete name : I:AUPSAUPS_0101_HDTVRip_VO-production.avi
Format : AVI
Format/Info : Audio Video Interleave
File size : 106 MiB
Duration : 11mn 24s
Overall bit rate : 1 301 Kbps
Writing application : VirtualDubMod 1.5.10.2 (build 2540/release)
Writing library : VirtualDubMod build 2540/release

Video
ID : 0
Format : MPEG-4 Visual
Format profile : Advanced Simple@L5
Format settings, BVOP : Yes
Format settings, QPel : No
Format settings, GMC : No warppoints
Format settings, Matrix : Default (H.263)
Muxing mode : Packed bitstream
Codec ID : XVID
Codec ID/Hint : XviD
Duration : 11mn 24s
Bit rate : 1 100 Kbps
Width : 720 pixels
Height : 400 pixels
Display aspect ratio : 16:9
Frame rate : 23.976 fps
Resolution : 8 bits
Colorimetry : 4:2:0
Scan type : Progressive
Bits/(Pixel*Frame) : 0.159
Stream size : 89.7 MiB (85%)
Writing library : XviD 1.2.0.dev47 (UTC 2006-11-01)

Audio
ID : 1
Format : AC-3
Format/Info : Audio Coding 3
Codec ID : 2000
Duration : 11mn 24s
Bit rate mode : Constant
Bit rate : 192 Kbps
Channel(s) : 2 channels
Channel positions : L R
Sampling rate : 48.0 KHz
Stream size : 15.7 MiB (15%)
Alignment : Split accross interleaves
Interleave, duration : 42 ms (1.00 video frame)
Interleave, preload duration : 500 ms





   Похожие торренты   Торрент   Размер 
В этой теме нет новых непрочитанных сообщений. Discovery. Гаражная команда / Garage Squad [01 из 09] (2014) HDTVRip от GeneralFilm | P1

36 | 17

1.06 ГБ

В этой теме нет новых непрочитанных сообщений. Discovery. Гаражная команда / Garage Squad [01 из 09] (2014) HDTVRip от GeneralFilm | P1

18 | 9

2.13 ГБ

В этой теме нет новых непрочитанных сообщений. Discovery. Гаражная команда / Garage Squad [01 из 09] (2014) HDTVRip от GeneralFilm | P1

83 | 14

543.89 МБ

В этой теме нет новых непрочитанных сообщений. Discovery. Гаражная команда / Garage Squad [01 из 09] (2014) HDTVRip от GeneralFilm | P1

25 | 14

2.66 ГБ

В этой теме нет новых непрочитанных сообщений. Discovery. Гаражная команда / Garage Squad [01 из 09] (2014) HDTVRip от GeneralFilm | P1

12 | 5

1.59 ГБ

В этой теме нет новых непрочитанных сообщений. Discovery. Гаражная команда / Garage Squad [01 из 09] (2014) HDTVRip 720p от GeneralFilm | P1

11 | 20

5.14 ГБ

В этой теме нет новых непрочитанных сообщений. Discovery. Гаражная команда / Garage Squad [01 из 09] (2014) HDTVRip 720p от GeneralFilm | P1

15 | 14

2.56 ГБ




Вы не можете начинать темы
Вы не можете отвечать на сообщения
Вы не можете редактировать свои сообщения
Вы не можете удалять свои сообщения
Вы не можете добавлять вложения

Перейти:  
Для Мосгорсуда, Роскомнадзора и рекламодателей: mosgorsud-torrent[собачка]yandex.ru
 Вход
ppkBB3cker v.2 © 2008-2014 @ PPK
[ Time : 0.046s | 15 Queries | GZIP : Off ]

Торрент трекер RUTOR.IN, Не можете зайти на rutor.org? Какой новый адрес рутор? Какое зеркало рутор? Не работает rutor.org и зеркала? Тогда наш торрент специально для вас. Rutor.in неофициальное зеркало rutor. В случае если у Вас заблокирован rutor или вдруг Вы не можете на него зайти, то Вы без труда сможете скачать бесплатно и без рекламы последние новинки кино, игр, сериалов и прочего у нас, на Rutor.in. Не нужно использовать прокси, чтобы зайти на рутор, достаточно воспользоваться нашим ресурсом. Все новые фильмы, игры, сериалы, книги и музыка за 2013 и 2014 годы через торрент бесплатно. Скачивайте фильмы в хорошем качестве, игры для пк, xbox, playstation без регистрации. У нас вы найдете новые Зарубежные сериалы и Русские сериалы 2013, 2014, 2015 годов. Оставайтесь с нами, качайте любимые фильмы, игры, сериалы, книги и музыку.