img image001 image001 image001 image001 image001 image001 image001 image001 image001 image001 image001 image001 image001 image001 image001

Planets Sun Sun Sun
Статистика раздачи
Автор: Снежана | Размер: 744.63 МБ | Добавлен: 27 июл 2013
Раздают: 14    Качают: 7
Скачать торрент
Скачать торрент
Описание торрента

СообщениеДобавлено: 27 июл 2013 

#77

Информация о фильме
Название: Альфа и Омега: Клыкастая братва
Оригинальное название: Alpha and Omega
Год выхода: 2010
Жанр: мультфильм, мелодрама, комедия, приключения, семейный
Режиссер: Энтони Белл /Anthony Bell/, Бен Глюк /Ben Gluck/
Роли озвучивали: Джастин Лонг /Justin Long/, Хайден Панеттьери /Hayden Panettiere/, Деннис Хоппер /Dennis Hopper/, Дэнни Гловер /Danny Glover/, Ларри Миллер /Larry Miller/, Эрик Прайс /Eric Price/, Викки Льюис /Vicki Lewis/, Крис Кармак /Chris Carmack/, Кевин Суссман /Kevin Sussman/, Брайан Донован /Brian Donovan/
Роли дублировали: Сергей Лазарев, Валерия Кудрявцева, Игорь Старосельцев, Василий Бочкарев, Александр Клюквин

О фильме:
Омега — волк, далёкий от высших кругов. Он мечтает познакомиться с самой популярной волчицей в стае — Альфой. И вот судьба подбрасывает ему неплохой шанс — работники заповедника отправляют их в Айдахо. Волку и волчице придётся сплотиться, для того, чтобы вернуться на свою родину.

Страна: США, Индия
Продолжительность: 01:27:55
Перевод: Профессиональный (дублированный)

Файл
Кодек: XviD / MP3
Качество: HDRip
Видео: XviD, 624x352 (16:9), 23.976 fps, 1 047 Kbps (0.199 bit/pixel)
Звук: MP3, 48.0 KHz, 2 ch, 128 Kbps, CBR

General
Complete name : E:Alpha.and.Omega_[Rutor.org].avi
Format : AVI
Format/Info : Audio Video Interleave
File size : 745 MiB
Duration : 1h 27mn
Overall bit rate : 1 184 Kbps
Writing application : VirtualDubMod 1.5.10.3 | www.virtualdub-fr.org || (build 2550/release)
Writing library : VirtualDubMod build 2550/release

Video
ID : 0
Format : MPEG-4 Visual
Format profile : Advanced Simple@L5
Format settings, BVOP : 1
Format settings, QPel : No
Format settings, GMC : No warppoints
Format settings, Matrix : Custom
Codec ID : XVID
Codec ID/Hint : XviD
Duration : 1h 27mn
Bit rate : 1 047 Kbps
Width : 624 pixels
Height : 352 pixels
Display aspect ratio : 16:9
Frame rate : 23.976 fps
Color space : YUV
Chroma subsampling : 4:2:0
Bit depth : 8 bits
Scan type : Progressive
Compression mode : Lossy
Bits/(Pixel*Frame) : 0.199
Stream size : 658 MiB (88%)
Writing library : XviD 63

Audio
ID : 1
Format : MPEG Audio
Format version : Version 1
Format profile : Layer 3
Codec ID : 55
Codec ID/Hint : MP3
Duration : 1h 27mn
Bit rate mode : Constant
Bit rate : 128 Kbps
Channel(s) : 2 channels
Sampling rate : 48.0 KHz
Compression mode : Lossy
Stream size : 80.5 MiB (11%)
Alignment : Aligned on interleaves
Interleave, duration : 42 ms (1.00 video frame)
Interleave, preload duration : 504 ms
Writing library : LAME3.98r
Encoding settings : -m s -V 4 -q 2 -lowpass 17 -b 128




   Похожие торренты   Торрент   Размер 
В этой теме нет новых непрочитанных сообщений. Альфа и Омега: Клыкастая братва / Alpha and Omega (2010) HDRip-AVC

3 | 3

745.26 МБ

В этой теме нет новых непрочитанных сообщений. Альфа и Омега: Клыкастая братва 3D / Alpha and Omega 3D (2010) HDRip | 3D-Video Анаглиф / F-Torrent

27 | 6

1.37 ГБ

В этой теме нет новых непрочитанных сообщений. Альфа и Омега: Клыкастая братва / Alpha and Omega (2010) Blu-Ray

2 | 8

21.25 ГБ

В этой теме нет новых непрочитанных сообщений. Альфа и Омега: Клыкастая братва / Alpha and Omega (2010) Blu-Ray | 3D-Video

0 | 3

21.25 ГБ

В этой теме нет новых непрочитанных сообщений. Альфа и Омега: Клыкастая братва / Alpha and Omega (2010) BDRemux

0 | 11

19.36 ГБ

В этой теме нет новых непрочитанных сообщений. Альфа и Омега: Клыкастая братва / Alpha and Omega (2010) BDRip от HQCLUB

104 | 13

1.45 ГБ

В этой теме нет новых непрочитанных сообщений. Альфа и Омега: Клыкастая братва / Alpha and Omega (2010) BDRip-AVC | iPad

33 | 3

1.51 ГБ




Вы не можете начинать темы
Вы не можете отвечать на сообщения
Вы не можете редактировать свои сообщения
Вы не можете удалять свои сообщения
Вы не можете добавлять вложения

Перейти:  
Для Мосгорсуда, Роскомнадзора и рекламодателей: mosgorsud-torrent[собачка]yandex.ru
 Вход
ppkBB3cker v.2 © 2008-2014 @ PPK
[ Time : 0.024s | 14 Queries | GZIP : Off ]

Торрент трекер RUTOR.IN, Не можете зайти на rutor.org? Какой новый адрес рутор? Какое зеркало рутор? Не работает rutor.org и зеркала? Тогда наш торрент специально для вас. Rutor.in неофициальное зеркало rutor. В случае если у Вас заблокирован rutor или вдруг Вы не можете на него зайти, то Вы без труда сможете скачать бесплатно и без рекламы последние новинки кино, игр, сериалов и прочего у нас, на Rutor.in. Не нужно использовать прокси, чтобы зайти на рутор, достаточно воспользоваться нашим ресурсом. Все новые фильмы, игры, сериалы, книги и музыка за 2013 и 2014 годы через торрент бесплатно. Скачивайте фильмы в хорошем качестве, игры для пк, xbox, playstation без регистрации. У нас вы найдете новые Зарубежные сериалы и Русские сериалы 2013, 2014, 2015 годов. Оставайтесь с нами, качайте любимые фильмы, игры, сериалы, книги и музыку.