img image001 image001 image001 image001 image001 image001 image001 image001 image001 image001 image001 image001 image001 image001 image001

Planets Sun Sun Sun
Статистика раздачи
Автор: Снежана | Размер: 2.18 ГБ | Добавлен: 27 июл 2013
Раздают: 94    Качают: 4
Скачать торрент
Скачать торрент
Описание торрента

СообщениеДобавлено: 27 июл 2013 

Рио / Rio (2011) BDRip-AVC
Релиз от HQ-ViDEO



[font=Georgia]Информация о фильме
Название: Рио
Оригинальное название: Rio
Год выхода: 2011
Жанр: Мультфильм, Мюзикл, Комедия, Приключения, Семейный
Режиссер: Карлос Салдана / Carlos Saldanha
В ролях: Джесси Айзенберг /Jesse Eisenberg/, Энн Хэтэуэй /Anne Hathaway/, Джейми Фокс /Jamie Foxx/, Уилл Ай Эм /Will i Am/, Родриго Санторо /Rodrigo Santoro/, Карен Дишер /Karen Disher/, Карлос Понсе /Carlos Ponce/, Джордж Лопез /George Lopez/, Джемейн Клемент /Jemaine Clement/, Джейсон Фриччион /Jason Fricchione/

О фильме:
Попугай-зануда оставляет свою уютную сытую жизнь в клетке и из Миннесоты отправляется в Рио-де-Жанейро, город грез всех и каждого. Неминуемые встречи, препятствия, опасности и любовь к последней представительнице его рода заставляют нашего героя по-другому посмотреть на мир и из скучного домоседа превратиться в милого симпатягу, узнавшего цену дружбе и смелости.

7.20 (18 536)

Страна: США
Студия: Blue Sky Studios, Twentieth Century Fox Animation
Продолжительность: 01:35:57
Перевод: Русский дублированный + Оригинальная дорожка (Английская)
Субтитры: Русские (полные + форсированные), Английские.

Файл
Кодек: MKV, H.264 codec
Качество: BDRip-AVC (Source: Blu-Ray Disc)
Видео: 2 489 kbps, 1032 x 428, 0.23 bit/pixel, 23.976 fps
Звук: Russian AC3 Dolby Digital; 384.00 kbps; 5.1 Ch; 48 kHz, English AC3 Dolby Digital; 384.00 kbps; 5.1 Ch; 48 kHz

Семпл

General
Unique ID : 172783802281194833781268086027692770701 (0x81FCF32ACD17F68FA69DFAE29E93858D)
Complete name : I:OtherRio.2011.DUAL.BDRip-AVC.AC3.-HQ-ViDEO.mkv
Format : Matroska
Format version : Version 2
File size : 2.18 GiB
Duration : 1h 35mn
Overall bit rate : 3 258 Kbps
Movie name : Rio / 2011 / Release by Vaippp / HQ-ViDEO
Encoded date : UTC 2011-07-11 04:51:03
Writing application : mkvmerge v4.9.0 ('Grüner') сборка от Jul 10 2011 21:16:18
Writing library : libebml v1.2.1 + libmatroska v1.1.1

Video
ID : 1
Format : AVC
Format/Info : Advanced Video Codec
Format profile : High@L4.1
Format settings, CABAC : Yes
Format settings, ReFrames : 8 frames
Codec ID : V_MPEG4/ISO/AVC
Duration : 1h 35mn
Bit rate : 2 489 Kbps
Width : 1 032 pixels
Height : 428 pixels
Display aspect ratio : 2.40:1
Frame rate : 23.976 fps
Color space : YUV
Chroma subsampling : 4:2:0
Bit depth : 8 bits
Scan type : Progressive
Bits/(Pixel*Frame) : 0.235
Stream size : 1.63 GiB (74%)
Title : BDRip 11/07/2011
Writing library : x264 core 115 r2008 4c552d8
Language : English

Audio #1
ID : 2
Format : AC-3
Format/Info : Audio Coding 3
Mode extension : CM (complete main)
Codec ID : A_AC3
Duration : 1h 35mn
Bit rate mode : Constant
Bit rate : 384 Kbps
Channel(s) : 6 channels
Channel positions : Front: L C R, Side: L R, LFE
Sampling rate : 48.0 KHz
Bit depth : 16 bits
Compression mode : Lossy
Stream size : 264 MiB (12%)
Title : DUB R5
Language : Russian

Audio #2
ID : 3
Format : AC-3
Format/Info : Audio Coding 3
Mode extension : CM (complete main)
Codec ID : A_AC3
Duration : 1h 35mn
Bit rate mode : Constant
Bit rate : 384 Kbps
Channel(s) : 6 channels
Channel positions : Front: L C R, Side: L R, LFE
Sampling rate : 48.0 KHz
Bit depth : 16 bits
Compression mode : Lossy
Stream size : 264 MiB (12%)
Title : Original
Language : English

Text #1
ID : 4
Format : UTF-8
Codec ID : S_TEXT/UTF8
Codec ID/Info : UTF-8 Plain Text
Title : Forced
Language : Russian

Text #2
ID : 5
Format : UTF-8
Codec ID : S_TEXT/UTF8
Codec ID/Info : UTF-8 Plain Text
Title : Full
Language : Russian

Text #3
ID : 6
Format : UTF-8
Codec ID : S_TEXT/UTF8
Codec ID/Info : UTF-8 Plain Text
Language : English

Menu
00:00:00.000 : en:00:00:00.000
00:06:34.853 : en:00:06:34.853
00:12:16.569 : en:00:12:16.569
00:16:13.139 : en:00:16:13.139
00:21:29.497 : en:00:21:29.497
00:23:46.008 : en:00:23:46.008
00:28:57.194 : en:00:28:57.194
00:34:11.841 : en:00:34:11.841
00:36:53.461 : en:00:36:53.461
00:39:27.615 : en:00:39:27.615
00:43:17.762 : en:00:43:17.762
00:45:48.454 : en:00:45:48.454
00:50:03.083 : en:00:50:03.083
00:52:58.217 : en:00:52:58.217
00:57:37.287 : en:00:57:37.287
01:00:49.646 : en:01:00:49.646
01:03:39.691 : en:01:03:39.691
01:07:57.365 : en:01:07:57.365
01:11:47.512 : en:01:11:47.512
01:15:32.027 : en:01:15:32.027
01:19:40.943 : en:01:19:40.943
01:21:19.333 : en:01:21:19.333
01:23:43.477 : en:01:23:43.477
01:26:38.902 : en:01:26:38.902



Автор рипа: Vaippp

Релиз от:



   Похожие торренты   Торрент   Размер 
В этой теме нет новых непрочитанных сообщений. VA - Hard Bass 2011: The Live Registration (2011) BDRip от HQ-ViDEO

2 | 1

1.46 ГБ

В этой теме нет новых непрочитанных сообщений. Kylie Minogue - Aphrodite Les Folies Tour 2011 - Live in London 3D (2011) BDRip 1080p | 3D-Video

8 | 3

18.41 ГБ

В этой теме нет новых непрочитанных сообщений. Рио / Rio (2011) BDRip от HQ-ViDEO

234 | 12

1.46 ГБ

В этой теме нет новых непрочитанных сообщений. 11-11-11 / 11-11-11 (2011) BDRip от HQ-ViDEO

24 | 3

1.45 ГБ

В этой теме нет новых непрочитанных сообщений. Дом (2011) BDRip-AVC от HQ-ViDEO

19 | 2

2.18 ГБ

В этой теме нет новых непрочитанных сообщений. Дом (2011) BDRip от HQ-ViDEO

13 | 2

2.18 ГБ

В этой теме нет новых непрочитанных сообщений. Сборник клипов - VA - Music Video (Official Video) #10 (2011) WEBRip 720p, 1080p

1 | 4

1.16 ГБ




Вы не можете начинать темы
Вы не можете отвечать на сообщения
Вы не можете редактировать свои сообщения
Вы не можете удалять свои сообщения
Вы не можете добавлять вложения

Перейти:  
Для Мосгорсуда, Роскомнадзора и рекламодателей: mosgorsud-torrent[собачка]yandex.ru
 Вход
ppkBB3cker v.2 © 2008-2014 @ PPK
[ Time : 0.034s | 14 Queries | GZIP : Off ]

Торрент трекер RUTOR.IN, Не можете зайти на rutor.org? Какой новый адрес рутор? Какое зеркало рутор? Не работает rutor.org и зеркала? Тогда наш торрент специально для вас. Rutor.in неофициальное зеркало rutor. В случае если у Вас заблокирован rutor или вдруг Вы не можете на него зайти, то Вы без труда сможете скачать бесплатно и без рекламы последние новинки кино, игр, сериалов и прочего у нас, на Rutor.in. Не нужно использовать прокси, чтобы зайти на рутор, достаточно воспользоваться нашим ресурсом. Все новые фильмы, игры, сериалы, книги и музыка за 2013 и 2014 годы через торрент бесплатно. Скачивайте фильмы в хорошем качестве, игры для пк, xbox, playstation без регистрации. У нас вы найдете новые Зарубежные сериалы и Русские сериалы 2013, 2014, 2015 годов. Оставайтесь с нами, качайте любимые фильмы, игры, сериалы, книги и музыку.