img image001 image001 image001 image001 image001 image001 image001 image001 image001 image001 image001 image001 image001 image001 image001

Planets Sun Sun Sun
Статистика раздачи
Автор: Снежана | Размер: 2.3 ГБ | Добавлен: 27 июл 2013
Раздают: 8    Качают: 3
Скачать торрент
Скачать торрент
Описание торрента

СообщениеДобавлено: 27 июл 2013 

Рио / Rio (2011) BDRip-AVC
от DHT-Movies



Название: Рио
Оригинальное название: Rio
Год выхода: 2011
Жанр: Мультфильм, мюзикл, комедия, приключения, семейный
Режиссер: Карлос Салдана
В ролях: Джесси Айзенберг, Энн Хэтэуэй, Джейми Фокс, Уилл Ай Эм, Родриго Санторо, Карен Дишер, Карлос Понсе, Джордж Лопез, Джемейн Клемент, Джейсон Фриччион

Сюжет фильма:
Попугай-зануда оставляет свою уютную сытую жизнь в клетке и из Миннесоты отправляется в Рио-де-Жанейро, город грез всех и каждого. Неминуемые встречи, препятствия, опасности и любовь к последней представительнице его рода заставляют нашего героя по-другому посмотреть на мир и из скучного домоседа превратиться в милого симпатягу, узнавшего цену дружбе и смелости.



[color=darkblue]«Он отправляется в самое удивительное и волшебное место на Земле... домой»[/color]



Выпущено: США | 20th Century Fox Animation
Продолжительность: 01:35:57
Перевод: Дубляж (Профессиональный) + Дубляж (Украинский) + Оригинальная звуковая дорожка
Субтитры: Russian; English.srt

Релиз группы: | by Ackles


Качество: BDRip-AVC (Source: shtift / BD-Remux / 1080p)
Формат: MKV
Видео кодек: H.264
Видео: AVC; 1280x536 (2:35) pix; ~2603 Kbps; 23.976 fps; x264(L4.1); 0.158 bits/pixel
Аудио (Русский): 48 kHz, AC3 Dolby Digital, 6 channels, ~448 kbps | (Дубляж)
Аудио (Английский): 48 kHz, AC3 Dolby Digital, 6 channels, ~448 kbps | (Оригинал,Отдельно)
Аудио (Украинский): 48 kHz, AC3 Dolby Digital, 6 channels, ~384 kbps | (Дубляж)

frame I:1151 Avg QP:13.16 size:116364
frame P:37748 Avg QP:16.95 size: 25423
frame B:99150 Avg QP:21.97 size: 7856
consecutive B-frames: 3.9% 5.7% 10.5% 52.6% 11.8% 12.3% 1.5% 1.0% 0.3% 0.3% 0.1%
mb I I16..4: 8.0% 66.2% 25.8%
mb P I16..4: 2.5% 11.8% 2.1% P16..4: 31.7% 17.6% 9.8% 0.0% 0.0% skip:24.5%
mb B I16..4: 0.2% 1.4% 0.3% B16..8: 30.6% 7.9% 2.5% direct: 3.7% skip:53.5% L0:41.8% L1:46.6% BI:11.6%
8x8 transform intra:71.4% inter:61.2%
coded y,uvDC,uvAC intra: 77.6% 79.9% 50.2% inter: 16.9% 15.3% 3.4%
i16 v,h,dc,p: 25% 18% 7% 49%
i8 v,h,dc,ddl,ddr,vr,hd,vl,hu: 12% 10% 5% 9% 13% 13% 14% 11% 13%
i4 v,h,dc,ddl,ddr,vr,hd,vl,hu: 11% 9% 4% 9% 15% 14% 15% 11% 13%
i8c dc,h,v,p: 33% 26% 19% 22%
Weighted P-Frames: Y:1.4% UV:1.0%
ref P L0: 54.3% 9.8% 14.4% 6.6% 5.0% 4.0% 3.2% 2.5% 0.4% 0.0%
ref B L0: 79.3% 9.1% 5.0% 2.4% 2.3% 1.3% 0.6%
ref B L1: 93.7% 6.3%
Format : Matroska
File size : 2.30 GiB
Duration : 1h 35mn
Overall bit rate : 3 436 Kbps
Encoded date : UTC 2011-07-11 18:40:25
Writing application : mkvmerge v4.6.0 ('Still Crazy After All These Years') сборка от Mar 10 2011 02:50:32
Writing library : libebml v1.2.0 + libmatroska v1.1.0

Video
ID : 1
Format : AVC
Format/Info : Advanced Video Codec
Format profile : High@L4.1
Format settings, CABAC : Yes
Format settings, ReFrames : 8 frames
Codec ID : V_MPEG4/ISO/AVC
Duration : 1h 35mn
Bit rate : 2 603 Kbps
Width : 1 280 pixels
Height : 536 pixels
Display aspect ratio : 2.35:1
Frame rate : 23.976 fps
Color space : YUV
Chroma subsampling : 4:2:0
Bit depth : 8 bits
Scan type : Progressive
Bits/(Pixel*Frame) : 0.158
Stream size : 1.70 GiB (74%)
Title : MKV | x264 | DHT-Movies
Writing library : x264 core 115 r1937 aa21558
Encoding settings : cabac=1 / ref=8 / deblock=1:-2:-2 / analyse=0x3:0x113 / me=umh / subme=9 / psy=1 / psy_rd=1.10:0.00 / mixed_ref=1 / me_range=32 / chroma_me=1 / trellis=2 / 8x8dct=1 / cqm=0 / deadzone=21,11 / fast_pskip=1 / chroma_qp_offset=0 / threads=3 / sliced_threads=0 / nr=0 / decimate=1 / interlaced=0 / bluray_compat=0 / constrained_intra=0 / bframes=10 / b_pyramid=2 / b_adapt=2 / b_bias=0 / direct=1 / weightb=1 / open_gop=0 / weightp=2 / keyint=250 / keyint_min=23 / scenecut=40 / intra_refresh=0 / rc_lookahead=60 / rc=2pass / mbtree=1 / bitrate=2603 / ratetol=1.0 / qcomp=0.60 / qpmin=0 / qpmax=69 / qpstep=4 / cplxblur=20.0 / qblur=0.5 / ip_ratio=1.40 / aq=1:1.00
Language : English

Audio #1
ID : 2
Format : AC-3
Format/Info : Audio Coding 3
Mode extension : CM (complete main)
Codec ID : A_AC3
Duration : 1h 35mn
Bit rate mode : Constant
Bit rate : 448 Kbps
Channel(s) : 6 channels
Channel positions : Front: L C R, Side: L R, LFE
Sampling rate : 48.0 KHz
Bit depth : 16 bits
Compression mode : Lossy
Stream size : 307 MiB (13%)
Title : AC3 | RUS | 448
Language : Russian

Audio #2
ID : 3
Format : AC-3
Format/Info : Audio Coding 3
Mode extension : CM (complete main)
Codec ID : A_AC3
Duration : 1h 35mn
Bit rate mode : Constant
Bit rate : 384 Kbps
Channel(s) : 6 channels
Channel positions : Front: L C R, Side: L R, LFE
Sampling rate : 48.0 KHz
Bit depth : 16 bits
Compression mode : Lossy
Stream size : 264 MiB (11%)
Title : AC3 | UKR | 384
Language : Ukrainian

Text #1
ID : 4
Format : UTF-8
Codec ID : S_TEXT/UTF8
Codec ID/Info : UTF-8 Plain Text
Title : Sub
Language : Russian

Text #2
ID : 5
Format : UTF-8
Codec ID : S_TEXT/UTF8
Codec ID/Info : UTF-8 Plain Text
Title : Sub
Language : English




   Похожие торренты   Торрент   Размер 
В этой теме нет новых непрочитанных сообщений. 11-11-11 / 11-11-11 (2011) BDRip-AVC от DHT-Movies

6 | 2

2.17 ГБ

В этой теме нет новых непрочитанных сообщений. На крючке! (2011) BDRip-AVC от DHT-Movies

4 | 4

2.15 ГБ

В этой теме нет новых непрочитанных сообщений. Дилемма / The Dilemma (2011) BDRip-AVC от DHT-Movies

4 | 3

2.18 ГБ

В этой теме нет новых непрочитанных сообщений. Санктум / Sanctum (2011) BDRip-AVC от DHT-Movies

2 | 4

2.47 ГБ

В этой теме нет новых непрочитанных сообщений. Аполлон 18 / Apollo 18 (2011) BDRip 720p от DHT-Movies

22 | 5

2.9 ГБ

В этой теме нет новых непрочитанных сообщений. Тачки 2 / Cars 2 (2011) BDRip 720p от DHT-Movies

2 | 6

4.37 ГБ

В этой теме нет новых непрочитанных сообщений. Заражение / Contagion (2011) BDRip 720p от DHT-Movies

85 | 6

2.9 ГБ




Вы не можете начинать темы
Вы не можете отвечать на сообщения
Вы не можете редактировать свои сообщения
Вы не можете удалять свои сообщения
Вы не можете добавлять вложения

Перейти:  
Для Мосгорсуда, Роскомнадзора и рекламодателей: mosgorsud-torrent[собачка]yandex.ru
 Вход
ppkBB3cker v.2 © 2008-2014 @ PPK
[ Time : 0.040s | 15 Queries | GZIP : Off ]

Торрент трекер RUTOR.IN, Не можете зайти на rutor.org? Какой новый адрес рутор? Какое зеркало рутор? Не работает rutor.org и зеркала? Тогда наш торрент специально для вас. Rutor.in неофициальное зеркало rutor. В случае если у Вас заблокирован rutor или вдруг Вы не можете на него зайти, то Вы без труда сможете скачать бесплатно и без рекламы последние новинки кино, игр, сериалов и прочего у нас, на Rutor.in. Не нужно использовать прокси, чтобы зайти на рутор, достаточно воспользоваться нашим ресурсом. Все новые фильмы, игры, сериалы, книги и музыка за 2013 и 2014 годы через торрент бесплатно. Скачивайте фильмы в хорошем качестве, игры для пк, xbox, playstation без регистрации. У нас вы найдете новые Зарубежные сериалы и Русские сериалы 2013, 2014, 2015 годов. Оставайтесь с нами, качайте любимые фильмы, игры, сериалы, книги и музыку.
cron