img image001 image001 image001 image001 image001 image001 image001 image001 image001 image001 image001 image001 image001 image001 image001

Planets Sun Sun Sun
Статистика раздачи
Автор: Снежана | Размер: 4.37 ГБ | Добавлен: 27 июл 2013
Раздают: 86    Качают: 6
Скачать торрент
Скачать торрент
Описание торрента

СообщениеДобавлено: 27 июл 2013 

Рио / Rio (2011) BDRip [720p]
Релиз от HQ-ViDEO



Информация о фильме
Название: Рио
Оригинальное название: Rio
Год выхода: 2011
Жанр: Мультфильм, Мюзикл, Комедия, Приключения, Семейный
Режиссер: Карлос Салдана /Carlos Saldanha/
В ролях: Джесси Айзенберг /Jesse Eisenberg/, Энн Хэтэуэй /Anne Hathaway/, Джейми Фокс /Jamie Foxx/, Уилл Ай Эм /Will i Am/, Родриго Санторо /Rodrigo Santoro/, Карен Дишер /Karen Disher/, Карлос Понсе /Carlos Ponce/, Джордж Лопез /George Lopez/, Джемейн Клемент /Jemaine Clement/, Джейсон Фриччион /Jason Fricchione/, ...

О фильме: Попугай-зануда оставляет свою уютную сытую жизнь в клетке и из Миннесоты отправляется в Рио-де-Жанейро, город грез всех и каждого. Неминуемые встречи, препятствия, опасности и любовь к последней представительнице его рода заставляют нашего героя по-другому посмотреть на мир и из скучного домоседа превратиться в милого симпатягу, узнавшего цену дружбе и смелости...

Страна: США
Студия: Blue Sky Studios, Twentieth Century Fox Animation
Продолжительность: 01:35:57
Перевод: Русский дублированный перевод + Украинский дублированный перевод + Оригинальная дорожка
Файл
Кодек: MKV, H.264 codec
Качество: BDRip (Исходник: BD Remux)
Видео: 1280 x 532 (2.40:1), 23.976 fps, MKV, H.264 ~ 5106 kbps avg, ~ 0.31 bit/pixel
Звук #1: 48 kHz, AC3 Dolby Digital, 3/2 (L,C,R,l,r) + LFE ch, ~448.00 kbps avg
Звук #2: 48 kHz, AC3 Dolby Digital, 3/2 (L,C,R,l,r) + LFE ch, ~384.00 kbps avg
Звук #3: 48 kHz, AC3 Dolby Digital, 3/2 (L,C,R,l,r) + LFE ch, ~448.00 kbps avg
Субтитры: Русские, Русские форсированные, Английские.

General
Complete name : Rio.2011.TRIPLE.BDRip.720p.h264.AC3.-HQ-ViDEO.mkv
Format : Matroska
File size : 4.37 GiB
Duration : 1h 35mn
Overall bit rate : 6 516 Kbps
Movie name : Rio (2011)
Encoded date : UTC 2011-07-14 12:42:08
Writing application : mkvmerge v3.3.0 ('Language') built on Mar 24 2010 14:59:24
Writing library : libebml v0.8.0 + libmatroska v0.9.0

Video
ID : 1
Format : AVC
Format/Info : Advanced Video Codec
Format profile : High@L4.1
Format settings, CABAC : Yes
Format settings, ReFrames : 6 frames
Codec ID : V_MPEG4/ISO/AVC
Duration : 1h 35mn
Bit rate mode : Variable
Bit rate : 5 106 Kbps
Width : 1 280 pixels
Height : 532 pixels
Display aspect ratio : 2.40:1
Frame rate : 23.976 fps
Color space : YUV
Chroma subsampling : 4:2:0
Bit depth : 8 bits
Scan type : Progressive
Bits/(Pixel*Frame) : 0.313
Stream size : 3.42 GiB (78%)
Title : Encoded by GYN

Audio #1
ID : 2
Format : AC-3
Format/Info : Audio Coding 3
Mode extension : CM (complete main)
Codec ID : A_AC3
Duration : 1h 35mn
Bit rate mode : Constant
Bit rate : 448 Kbps
Channel(s) : 6 channels
Channel positions : Front: L C R, Side: L R, LFE
Sampling rate : 48.0 KHz
Bit depth : 16 bits
Compression mode : Lossy
Stream size : 307 MiB (7%)
Title : DUB
Language : Russian

Audio #2
ID : 3
Format : AC-3
Format/Info : Audio Coding 3
Mode extension : CM (complete main)
Codec ID : A_AC3
Duration : 1h 35mn
Bit rate mode : Constant
Bit rate : 384 Kbps
Channel(s) : 6 channels
Channel positions : Front: L C R, Side: L R, LFE
Sampling rate : 48.0 KHz
Bit depth : 16 bits
Compression mode : Lossy
Stream size : 264 MiB (6%)
Title : Dub
Language : Ukrainian

Audio #3
ID : 4
Format : AC-3
Format/Info : Audio Coding 3
Mode extension : CM (complete main)
Codec ID : A_AC3
Duration : 1h 35mn
Bit rate mode : Constant
Bit rate : 448 Kbps
Channel(s) : 6 channels
Channel positions : Front: L C R, Side: L R, LFE
Sampling rate : 48.0 KHz
Bit depth : 16 bits
Compression mode : Lossy
Stream size : 307 MiB (7%)
Title : Original
Language : English

Text #1
ID : 5
Format : UTF-8
Codec ID : S_TEXT/UTF8
Codec ID/Info : UTF-8 Plain Text
Language : Russian

Text #2
ID : 6
Format : UTF-8
Codec ID : S_TEXT/UTF8
Codec ID/Info : UTF-8 Plain Text
Title : Forced
Language : Russian

Text #3
ID : 7
Format : UTF-8
Codec ID : S_TEXT/UTF8
Codec ID/Info : UTF-8 Plain Text
Language : English


Скриншоты для оценки качества:



Автор рипа: GYN

Релиз:



   Похожие торренты   Торрент   Размер 
В этой теме нет новых непрочитанных сообщений. Дом (2011) BDRip 720p от HQ-ViDEO

112 | 5

6.14 ГБ

В этой теме нет новых непрочитанных сообщений. Тор / Thor (2011) BDRip [720p] от HQ-ViDEO

260 | 12

6.07 ГБ

В этой теме нет новых непрочитанных сообщений. Ёлки 2 (2011) BDRip 720p от HQ-ViDEO

149 | 4

4.37 ГБ

В этой теме нет новых непрочитанных сообщений. Тор / Thor (2011) BDRip 720p | 3D-Video

19 | 5

6.75 ГБ

В этой теме нет новых непрочитанных сообщений. Сборник клипов - VA - Music Video (Official Video) #1 (2011) WEBRip 720p, 1080p

1 | 4

742.46 МБ

В этой теме нет новых непрочитанных сообщений. Сборник клипов - VA - Music Video (Official Video) #4 (2011) WEBRip 720p, 1080p

1 | 4

883.89 МБ

В этой теме нет новых непрочитанных сообщений. Сборник клипов - VA - Music Video (Official Video) #10 (2011) WEBRip 720p, 1080p

1 | 4

1.16 ГБ




Вы не можете начинать темы
Вы не можете отвечать на сообщения
Вы не можете редактировать свои сообщения
Вы не можете удалять свои сообщения
Вы не можете добавлять вложения

Перейти:  
Для Мосгорсуда, Роскомнадзора и рекламодателей: mosgorsud-torrent[собачка]yandex.ru
 Вход
ppkBB3cker v.2 © 2008-2014 @ PPK
[ Time : 0.607s | 15 Queries | GZIP : Off ]

Торрент трекер RUTOR.IN, Не можете зайти на rutor.org? Какой новый адрес рутор? Какое зеркало рутор? Не работает rutor.org и зеркала? Тогда наш торрент специально для вас. Rutor.in неофициальное зеркало rutor. В случае если у Вас заблокирован rutor или вдруг Вы не можете на него зайти, то Вы без труда сможете скачать бесплатно и без рекламы последние новинки кино, игр, сериалов и прочего у нас, на Rutor.in. Не нужно использовать прокси, чтобы зайти на рутор, достаточно воспользоваться нашим ресурсом. Все новые фильмы, игры, сериалы, книги и музыка за 2013 и 2014 годы через торрент бесплатно. Скачивайте фильмы в хорошем качестве, игры для пк, xbox, playstation без регистрации. У нас вы найдете новые Зарубежные сериалы и Русские сериалы 2013, 2014, 2015 годов. Оставайтесь с нами, качайте любимые фильмы, игры, сериалы, книги и музыку.
cron