img image001 image001 image001 image001 image001 image001 image001 image001 image001 image001 image001 image001 image001 image001 image001

Planets Sun Sun Sun
Статистика раздачи
Автор: Снежана | Размер: 4.6 ГБ | Добавлен: 27 июл 2013
Раздают: 25    Качают: 2
Скачать торрент
Скачать торрент
Описание торрента

СообщениеДобавлено: 27 июл 2013 

#77
Информация о фильме
Название: Тайна красной планеты
Оригинальное название: Mars Needs Moms
Год выхода: 2011
Жанр: мультфильм, фантастика, комедия, приключения, семейный
Режиссер: Саймон Уэллс
В ролях: Сет Грин, Дэн Фоглер, Джоан Кьюсак, Элизабет Арнуа, Мелинда Стерлинг, Кевин Кахун, Том Эверетт Скотт, Жаки Барнбрук, Мэттью Хенерсон, Адам Дженнингс

О фильме:
Есть мерзкую брокколи, выносить мусор, рано ложиться спать — кому вообще нужны мамы, заставляющие это делать? Так думал Майло, пока не обнаружил, что его маму похитили марсиане. Тут-то и оказалось, что ему предстоит отправиться на другую планету, чтобы найти маму и вернуть ее домой.



Выпущено: США / ImageMovers, Walt Disney Productions
Продолжительность: 01:28:04
Озвучивание: Дублированное [лицензия]

Файл
Формат: MKV
Качество: BDRip 720p
Видео: 5589 kb/s, 1280x536
Аудио: Russian: AC3, 384 kb/s (6 ch) / English: DTS, 1510 kb/s (6 ch)
Субтитры: Russian, English
Размер: 4.60 Gb
Скачать: Сэмпл
Релиз группы:
Complete name : Y:TaynaMars.Needs.Moms.BDRip.720p.at.mkv
Format : Matroska
File size : 4.60 GiB
Duration : 1h 28mn
Overall bit rate : 7 485 Kbps
Movie name : Mars Needs Moms (2011) Release for Uniongang.tv
Encoded date : UTC 2011-07-17 16:05:17
Writing application : mkvmerge v4.8.0 ('I Got The...') сборка от May 24 2011 03:12:58
Writing library : libebml v1.2.0 + libmatroska v1.1.0

Video
ID : 1
Format : AVC
Format/Info : Advanced Video Codec
Format profile : High@L4.1
Format settings, CABAC : Yes
Format settings, ReFrames : 5 frames
Format settings, GOP : M=4, N=32
Codec ID : V_MPEG4/ISO/AVC
Duration : 1h 28mn
Bit rate : 5 589 Kbps
Width : 1 280 pixels
Height : 536 pixels
Display aspect ratio : 2.35:1
Frame rate : 23.976 fps
Color space : YUV
Chroma subsampling : 4:2:0
Bit depth : 8 bits
Scan type : Progressive
Bits/(Pixel*Frame) : 0.340
Stream size : 3.35 GiB (73%)
Title : Mars Needs Moms (2011) Release for Uniongang.tv
Writing library : x264 core 116 r2019 9cc407d
Encoding settings : cabac=1 / ref=5 / deblock=1:0:0 / analyse=0x3:0x133 / me=umh / subme=7 / psy=1 / psy_rd=1.00:0.00 / mixed_ref=1 / me_range=16 / chroma_me=1 / trellis=1 / 8x8dct=1 / cqm=0 / deadzone=21,11 / fast_pskip=0 / chroma_qp_offset=-2 / threads=12 / sliced_threads=0 / nr=0 / decimate=1 / interlaced=0 / bluray_compat=0 / constrained_intra=0 / bframes=3 / b_pyramid=2 / b_adapt=1 / b_bias=0 / direct=1 / weightb=1 / open_gop=0 / weightp=2 / keyint=250 / keyint_min=23 / scenecut=40 / intra_refresh=0 / rc_lookahead=40 / rc=2pass / mbtree=1 / bitrate=5589 / ratetol=1.0 / qcomp=0.60 / qpmin=0 / qpmax=69 / qpstep=4 / cplxblur=20.0 / qblur=0.5 / ip_ratio=1.40 / aq=1:1.00
Language : English

Audio #1
ID : 2
Format : AC-3
Format/Info : Audio Coding 3
Mode extension : CM (complete main)
Codec ID : A_AC3
Duration : 1h 28mn
Bit rate mode : Constant
Bit rate : 384 Kbps
Channel(s) : 6 channels
Channel positions : Front: L C R, Side: L R, LFE
Sampling rate : 48.0 KHz
Bit depth : 16 bits
Compression mode : Lossy
Stream size : 242 MiB (5%)
Title : Russian: AC3, 384 kb/s (6 ch)
Language : Russian

Audio #2
ID : 3
Format : DTS
Format/Info : Digital Theater Systems
Codec ID : A_DTS
Duration : 1h 28mn
Bit rate mode : Constant
Bit rate : 1 510 Kbps
Channel(s) : 6 channels
Channel positions : Front: L C R, Side: L R, LFE
Sampling rate : 48.0 KHz
Bit depth : 24 bits
Compression mode : Lossy
Delay relative to video : 11ms
Stream size : 951 MiB (20%)
Title : English: DTS, 1510 kb/s (6 ch)
Language : English

Text #1
ID : 4
Format : UTF-8
Codec ID : S_TEXT/UTF8
Codec ID/Info : UTF-8 Plain Text
Title : Russian
Language : Russian

Text #2
ID : 5
Format : UTF-8
Codec ID : S_TEXT/UTF8
Codec ID/Info : UTF-8 Plain Text
Title : English
Language : English

Скриншоты:



   Похожие торренты   Торрент   Размер 
В этой теме нет новых непрочитанных сообщений. Тайна красной планеты / Mars Needs Moms (2011) BDRip 1080p | Лицензия

83 | 12

6.79 ГБ

В этой теме нет новых непрочитанных сообщений. Тайна красной планеты / Mars Needs Moms (2011) BDRip 720p от HQCLUB

1 | 1

4.24 ГБ

В этой теме нет новых непрочитанных сообщений. Тайна красной планеты / Mars Needs Moms (2011) DVD9 | Лицензия

5 | 2

5.57 ГБ

В этой теме нет новых непрочитанных сообщений. Тайна красной планеты / Mars Needs Moms (2011) HDRip | Лицензия

12 | 3

700.11 МБ

В этой теме нет новых непрочитанных сообщений. Тайна красной планеты / Mars Needs Moms (2011) DVDRip-AVC от Vaippp | Лицензия

2 | 2

1.45 ГБ

В этой теме нет новых непрочитанных сообщений. Тайна красной планеты / Mars Needs Moms (2011) BDRip от HQ-VIDEO

441 | 27

1.46 ГБ

В этой теме нет новых непрочитанных сообщений. Тайна красной планеты / Mars Needs Moms (2011) BDRip-AVC от HQ-VIDEO

99 | 5

2.18 ГБ




Вы не можете начинать темы
Вы не можете отвечать на сообщения
Вы не можете редактировать свои сообщения
Вы не можете удалять свои сообщения
Вы не можете добавлять вложения

Перейти:  
Для Мосгорсуда, Роскомнадзора и рекламодателей: mosgorsud-torrent[собачка]yandex.ru
 Вход
ppkBB3cker v.2 © 2008-2014 @ PPK
[ Time : 0.164s | 14 Queries | GZIP : Off ]

Торрент трекер RUTOR.IN, Не можете зайти на rutor.org? Какой новый адрес рутор? Какое зеркало рутор? Не работает rutor.org и зеркала? Тогда наш торрент специально для вас. Rutor.in неофициальное зеркало rutor. В случае если у Вас заблокирован rutor или вдруг Вы не можете на него зайти, то Вы без труда сможете скачать бесплатно и без рекламы последние новинки кино, игр, сериалов и прочего у нас, на Rutor.in. Не нужно использовать прокси, чтобы зайти на рутор, достаточно воспользоваться нашим ресурсом. Все новые фильмы, игры, сериалы, книги и музыка за 2013 и 2014 годы через торрент бесплатно. Скачивайте фильмы в хорошем качестве, игры для пк, xbox, playstation без регистрации. У нас вы найдете новые Зарубежные сериалы и Русские сериалы 2013, 2014, 2015 годов. Оставайтесь с нами, качайте любимые фильмы, игры, сериалы, книги и музыку.