img image001 image001 image001 image001 image001 image001 image001 image001 image001 image001 image001 image001 image001 image001 image001

Planets Sun Sun Sun
Статистика раздачи
Автор: Снежана | Размер: 6.79 ГБ | Добавлен: 27 июл 2013
Раздают: 83    Качают: 12
Скачать торрент
Скачать торрент
Описание торрента

СообщениеДобавлено: 27 июл 2013 

#77
Информация о фильме
Название: Тайна красной планеты
Оригинальное название: Mars Needs Moms
Год выхода: 2011
Жанр: мультфильм, фантастика, комедия, приключения, семейный
Режиссер: Саймон Уэллс
В ролях: Сет Грин, Дэн Фоглер, Джоан Кьюсак, Элизабет Арнуа, Мелинда Стерлинг, Кевин Кахун, Том Эверетт Скотт, Жаки Барнбрук, Мэттью Хенерсон, Адам Дженнингс

О фильме:
Есть мерзкую брокколи, выносить мусор, рано ложиться спать — кому вообще нужны мамы, заставляющие это делать? Так думал Майло, пока не обнаружил, что его маму похитили марсиане. Тут-то и оказалось, что ему предстоит отправиться на другую планету, чтобы найти маму и вернуть ее домой.



Выпущено: США / ImageMovers, Walt Disney Productions
Продолжительность: 01:28:04
Озвучивание: Дублированное [лицензия]

Файл
Формат: MKV
Качество: BDRip 1080p
Видео: 9145 kb/s, 1920x800
Аудио: Russian: AC3, 384 kb/s (6 ch) / English: DTS, 1510 kb/s (6 ch)
Субтитры: Russian, English
Размер: 6.79 Gb
Скачать: Сэмпл
Релиз группы:
Общее
Полное имя : C:Taina.Krasnoi.Planety.2011.BDRip.1080p.mkv
Формат : Matroska
Размер файла : 6,79 Гбайт
Продолжительность : 1 ч. 28 м.
Общий поток : 11,0 Мбит/сек
Дата кодирования : UTC 2011-07-18 06:08:36
Программа кодирования : mkvmerge v4.5.0 ('Speed of Light') сборка от Feb 1 2011 02:10:32
Библиотека кодирования : libebml v1.2.0 + libmatroska v1.1.0

Видео
Идентификатор : 1
Формат : AVC
Формат/Информация : Advanced Video Codec
Профиль формата : High@L4.1
Параметр CABAC формата : Да
Параметр ReFrames формата : 5 кадры
Параметры GOP формата : M=4, N=32
Режим смешивания : Header stripping
Идентификатор кодека : V_MPEG4/ISO/AVC
Продолжительность : 1 ч. 28 м.
Битрейт : 9145 Кбит/сек
Ширина : 1920 пикс.
Высота : 800 пикс.
Соотношение сторон : 2,40:1
Частота кадров : 23,976 кадр/сек
Цветовое пространство : YUV
Подвыборка цветности : 4:2:0
Битовая глубина : 8 бит
Тип развёртки : Прогрессивная
Бит/(Пиксели*Кадры) : 0.248
Размер потока : 5,49 Гбайт (81%)
Библиотека кодирования : x264 core 116 r2019 9cc407d
Настройки программы : cabac=1 / ref=5 / deblock=1:0:0 / analyse=0x3:0x133 / me=umh / subme=7 / psy=1 / psy_rd=1.00:0.00 / mixed_ref=1 / me_range=16 / chroma_me=1 / trellis=1 / 8x8dct=1 / cqm=0 / deadzone=21,11 / fast_pskip=0 / chroma_qp_offset=-2 / threads=12 / sliced_threads=0 / nr=0 / decimate=1 / interlaced=0 / bluray_compat=0 / constrained_intra=0 / bframes=3 / b_pyramid=2 / b_adapt=1 / b_bias=0 / direct=1 / weightb=1 / open_gop=0 / weightp=2 / keyint=250 / keyint_min=23 / scenecut=40 / intra_refresh=0 / rc_lookahead=40 / rc=2pass / mbtree=1 / bitrate=9145 / ratetol=1.0 / qcomp=0.60 / qpmin=0 / qpmax=69 / qpstep=4 / cplxblur=20.0 / qblur=0.5 / ip_ratio=1.40 / aq=1:1.00
Язык : English

Аудио #1
Идентификатор : 2
Формат : AC-3
Формат/Информация : Audio Coding 3
Расширение режима : CM (complete main)
Режим смешивания : Header stripping
Идентификатор кодека : A_AC3
Продолжительность : 1 ч. 28 м.
Вид битрейта : Постоянный
Битрейт : 384 Кбит/сек
Канал(ы) : 6 канала(ов)
Расположение каналов : Front: L C R, Side: L R, LFE
Частота : 48,0 КГц
Битовая глубина : 16 бит
Метод сжатия : С потерями
Размер потока : 242 Мбайт (3%)
Заголовок : Дублированный
Язык : Russian

Аудио #2
Идентификатор : 3
Формат : DTS
Формат/Информация : Digital Theater Systems
Режим смешивания : Header stripping
Идентификатор кодека : A_DTS
Продолжительность : 1 ч. 28 м.
Вид битрейта : Постоянный
Битрейт : 1510 Кбит/сек
Канал(ы) : 6 канала(ов)
Расположение каналов : Front: L C R, Side: L R, LFE
Частота : 48,0 КГц
Битовая глубина : 24 бит
Метод сжатия : С потерями
Задержка видео : 11 мс.
Размер потока : 951 Мбайт (14%)
Язык : English

Текст #1
Идентификатор : 4
Формат : UTF-8
Идентификатор кодека : S_TEXT/UTF8
Идентификатор кодека/Информация : UTF-8 Plain Text
Язык : Russian

Текст #2
Идентификатор : 5
Формат : UTF-8
Идентификатор кодека : S_TEXT/UTF8
Идентификатор кодека/Информация : UTF-8 Plain Text
Язык : English

Меню
00:00:00.000 : en:00:00:00.000
00:04:04.578 : en:00:04:04.578
00:09:15.013 : en:00:09:15.013
00:13:56.836 : en:00:13:56.836
00:19:13.402 : en:00:19:13.402
00:28:13.901 : en:00:28:13.901
00:34:29.776 : en:00:34:29.776
00:40:19.250 : en:00:40:19.250
00:47:15.624 : en:00:47:15.624
00:56:49.781 : en:00:56:49.781
01:09:03.348 : en:01:09:03.348
01:21:25.422 : en:01:21:25.422

Скриншоты:



   Похожие торренты   Торрент   Размер 
В этой теме нет новых непрочитанных сообщений. Тайна красной планеты / Mars Needs Moms (2011) BDRip 720p | Лицензия

25 | 2

4.6 ГБ

В этой теме нет новых непрочитанных сообщений. Тайна красной планеты / Mars Needs Moms (2011) BDRip 1080p | 3D-Video

10 | 3

7.66 ГБ

В этой теме нет новых непрочитанных сообщений. Тайна красной планеты / Mars Needs Moms (2011) BDRip 1080p | 3D-Video

8 | 2

5.18 ГБ

В этой теме нет новых непрочитанных сообщений. Тайна красной планеты / Mars Needs Moms (2011) BDrip 1080p | 3D-Video / Анаглиф

4 | 1

4.47 ГБ

В этой теме нет новых непрочитанных сообщений. Тайна красной планеты / Mars Needs Moms (2011) HDRip | Лицензия

12 | 3

700.11 МБ

В этой теме нет новых непрочитанных сообщений. Тайна красной планеты / Mars Needs Moms (2011) DVD9 | Лицензия

5 | 2

5.57 ГБ

В этой теме нет новых непрочитанных сообщений. Тайна красной планеты / Mars Needs Moms (2011) Blu-Ray Remux 1080p

2 | 2

22.69 ГБ




Вы не можете начинать темы
Вы не можете отвечать на сообщения
Вы не можете редактировать свои сообщения
Вы не можете удалять свои сообщения
Вы не можете добавлять вложения

Перейти:  
Для Мосгорсуда, Роскомнадзора и рекламодателей: mosgorsud-torrent[собачка]yandex.ru
 Вход
ppkBB3cker v.2 © 2008-2014 @ PPK
[ Time : 0.026s | 14 Queries | GZIP : On ]

Торрент трекер RUTOR.IN, Не можете зайти на rutor.org? Какой новый адрес рутор? Какое зеркало рутор? Не работает rutor.org и зеркала? Тогда наш торрент специально для вас. Rutor.in неофициальное зеркало rutor. В случае если у Вас заблокирован rutor или вдруг Вы не можете на него зайти, то Вы без труда сможете скачать бесплатно и без рекламы последние новинки кино, игр, сериалов и прочего у нас, на Rutor.in. Не нужно использовать прокси, чтобы зайти на рутор, достаточно воспользоваться нашим ресурсом. Все новые фильмы, игры, сериалы, книги и музыка за 2013 и 2014 годы через торрент бесплатно. Скачивайте фильмы в хорошем качестве, игры для пк, xbox, playstation без регистрации. У нас вы найдете новые Зарубежные сериалы и Русские сериалы 2013, 2014, 2015 годов. Оставайтесь с нами, качайте любимые фильмы, игры, сериалы, книги и музыку.