img image001 image001 image001 image001 image001 image001 image001 image001 image001 image001 image001 image001 image001 image001 image001

Planets Sun Sun Sun
Статистика раздачи
Автор: Снежана | Размер: 1005.92 МБ | Добавлен: 27 июл 2013
Раздают: 0    Качают: 2
Скачать торрент
Скачать торрент
Описание торрента

СообщениеДобавлено: 27 июл 2013 


Футурама | Futurama
Год выхода: 2011
Жанр: Комедия, фантастика, мультипликация
Режиссер: Мэтт Гроунингх.
В ролях: Билли Уэст, Кейти Сэгал, Джон ДиМаджио, Фил ЛаМарр, Лоурэн Том
Описание: Сериал начинается с того, что разносчик пиццы из Нью-Йорка Филипп Джей Фрай случайно, как это кажется на первый взгляд, был заморожен в криогенной камере ровно в 00 часов 00 минут 00 секунд 1 января 2000 года. Он был разморожен тысячу лет спустя, 31 декабря 2999 года, и обнаружил себя в городе будущего Нью-Нью-Йорке. Знакомясь со своей будущей коллегой Турангой Лилой, Фрай пытается избежать принудительного назначения на работу курьером, кем он и был в прошлой жизни, и внедрения ему карьерного чипа — микросхемы, вшиваемой под кожу и определяющей род занятий своего носителя. Лила, в это время работающая инспектором по раздаче профессий, догоняя Фрая, чтобы вживить ему чип, в результате выслушивания речей Фрая о его прошлой никчемной жизни курьером, отказывается от работы инспектора, которая ей не по душе, и вместе они находят очень дальнего потомка Фрая (его пра-пра-пра-…-пра-внучатого племянника) Хьюберта Фарнсворта — маразматичного 160-летнего гениального ученого-склеротика, который берет их на работу в свою небольшую компанию «Межпланетный экспресс», занимающуюся межгалактическими грузоперевозками, на должность курьера. «Межпланетный экспресс» — это маленький бизнес профессора, окупающий его гениальные, но иногда весьма сомнительные исследования и изобретения.

0614 - Неутопия / Neutopia
0615 - Бэндерама / Benderama
0616 - Призрак в машинах / Ghost in the Machine
0617 - Закон и предсказания / Law and Oracle
0618 - Молчание Клешней / The Silence of the Clamp
0619 - Привет Лила Лила / Yo Leela Leela
0620 - Все президентские головы / All the Presidents' Head
0621 - Мебиус Дик / Möbius Dick
0622 - Фрай — человек яйцо / Fry am the Egg Man
0623 - Совет Зойдберга / The Tip of the Zoidberg
0624 - Холодные воины / Cold Warriors
0625 - По часовой стрелке / Overclockwise
0626 - Реинкарнация / Futurama Reincarnation
C:ТоррентJetvis StudioFuturama.S06.rus.eng.Jetvis.Studio614.avi
General
Complete name : C:ТоррентJetvis StudioFuturama.S06.rus.eng.Jetvis.Studio614.avi
Format : AVI
Format/Info : Audio Video Interleave
File size : 201 MiB
Duration : 21mn 39s
Overall bit rate : 1 294 Kbps
Writing application : VirtualDubMod 1.5.10.2 (build 2542/release)
Writing library : VirtualDubMod build 2542/release
Video #0
ID : 0
Format : MPEG-4 Visual
Format profile : AdvancedSimple@L5
Format settings, BVOP : Yes
Format settings, QPel : No
Format settings, GMC : No warppoints
Format settings, Matrix : Default (H.263)
Codec ID : XVID
Codec ID/Hint : XviD
Duration : 21mn 39s
Bit rate : 1 093 Kbps
Width : 720 pixels
Height : 400 pixels
Display aspect ratio : 16:9
Frame rate : 23.976 fps
Resolution : 24 bits
Colorimetry : 4:2:0
Scan type : Progressive
Bits/(Pixel*Frame) : 0.158
Stream size : 169 MiB (84%)
Writing library : XviD 1.2.1 (UTC 2008-12-04)
Audio #1
ID : 1
Format : MPEG Audio
Format version : Version 1
Format profile : Layer 3
Codec ID : 55
Codec ID/Hint : MP3
Duration : 21mn 39s
Bit rate mode : Constant
Bit rate : 192 Kbps
Channel(s) : 2 channels
Sampling rate : 48.0 KHz
Resolution : 16 bits
Stream size : 29.8 MiB (15%)
Alignment : Aligned on interleaves
Interleave, duration : 42 ms (1.00 video frame)
Interleave, preload duration : 504 ms
Раздача ведётся путём добавления новых серий; при каждом добавлении создаётся новый торрент. Чтобы начать докачку новой серии, пользователям необходимо сделать следующее:
(1) остановить скачивание,
(2) удалить старый торрент у себя из клиента (старые серии удалять не надо),
(3) скачать новый торрент и запустить его у себя в клиенте вместо старого, при этом указать клиенту путь в старую папку куда и должно происходить скачивание новых серий.

Ваш клиент при этом должен произвести хеширование (проверку) старой папки (если не производит сам - помогите ему сделать это), и будет докачивать только те серии которых у вас ещё нет. Старые серии при этом не удаляются, а продолжают раздаваться!

Eсли вы уже удалили старые серии, то предотвратить повторную закачку старых серий можно, отжав галочку в соответствующих местах при запуске нового торрента. По возможности, желательно не удалять старые серии как можно дольше чтобы релизёр не столько продолжал раздавать старые серии, а смог сконцентрироваться на новых.


Семпл



Страна: США
Продолжительность: ~ 00:21:00
Перевод: Любительский (одноголосый закадровый) - (Jetvis Studio)
Кодек: XviD
Качество: WEB-DLRip
Видео: XviD, 720x400, 23.976 fps, 1100 Kbps
Аудио: MP3, 48.0 KHz, 2 ch, 192 Kbps (RUS)
[*]Субтитры: Отсутствуют




   Похожие торренты   Торрент   Размер 
В этой теме нет новых непрочитанных сообщений. Футурама / Futurama [06x14-19 из 26] (2011) WEB-DLRip | Jetvis Studio

0 | 38

1.19 ГБ

В этой теме нет новых непрочитанных сообщений. Футурама / Futurama [06x14 из 26] (2011) WEB-DLRip | VO-Production

0 | 2

204.92 МБ

В этой теме нет новых непрочитанных сообщений. Футурама / Futurama [06x14-16] (2011) WEBDLRip 720p | LostFilm

0 | 2

882.16 МБ

В этой теме нет новых непрочитанных сообщений. Футурама / Futurama [S06] (2010-2011) WEB-DLRip | P

49 | 13

5.72 ГБ

В этой теме нет новых непрочитанных сообщений. Футурама / Futurama [06x01-14 из 26] (2011) WEB-DLRip | VO-Production

0 | 2

2.68 ГБ

В этой теме нет новых непрочитанных сообщений. Футурама / Futurama [S06] (2010-2011) WEB-DLRip | LostFilm

48 | 17

6.37 ГБ

В этой теме нет новых непрочитанных сообщений. Футурама / Futurama [06x22] (2011) WEB-DLRip | от UaTeam

0 | 2

250.29 МБ




Вы не можете начинать темы
Вы не можете отвечать на сообщения
Вы не можете редактировать свои сообщения
Вы не можете удалять свои сообщения
Вы не можете добавлять вложения

Перейти:  
Для Мосгорсуда, Роскомнадзора и рекламодателей: mosgorsud-torrent[собачка]yandex.ru
 Вход
ppkBB3cker v.2 © 2008-2014 @ PPK
[ Time : 0.043s | 15 Queries | GZIP : Off ]

Торрент трекер RUTOR.IN, Не можете зайти на rutor.org? Какой новый адрес рутор? Какое зеркало рутор? Не работает rutor.org и зеркала? Тогда наш торрент специально для вас. Rutor.in неофициальное зеркало rutor. В случае если у Вас заблокирован rutor или вдруг Вы не можете на него зайти, то Вы без труда сможете скачать бесплатно и без рекламы последние новинки кино, игр, сериалов и прочего у нас, на Rutor.in. Не нужно использовать прокси, чтобы зайти на рутор, достаточно воспользоваться нашим ресурсом. Все новые фильмы, игры, сериалы, книги и музыка за 2013 и 2014 годы через торрент бесплатно. Скачивайте фильмы в хорошем качестве, игры для пк, xbox, playstation без регистрации. У нас вы найдете новые Зарубежные сериалы и Русские сериалы 2013, 2014, 2015 годов. Оставайтесь с нами, качайте любимые фильмы, игры, сериалы, книги и музыку.