img image001 image001 image001 image001 image001 image001 image001 image001 image001 image001 image001 image001 image001 image001 image001

Planets Sun Sun Sun
Статистика раздачи
Автор: Снежана | Размер: 1.6 ГБ | Добавлен: 27 июл 2013
Раздают: 35    Качают: 4
Скачать торрент
Скачать торрент
Описание торрента

СообщениеДобавлено: 27 июл 2013 



Информация о фильме
Название: 38 обезьян
Оригинальное название: Monkey Dust
Год выхода: 2003
Жанр: черная комедия
В ролях: Frances Barber, Rebecca Front, Peter Dickson, Simon Greenall, Sharon Horgan, Enn Reitel, Kate Robbins

Описание: «38 обезьян» («Monkey Dust») - это короткие скетчи из жизни обитателей мегаполиса, сходящих, или уже благополучно сошедших с ума (невротики, маньяки, извращенцы, террористы - все они живут по соседству, все уверены, что они-то - абсолютно нормальны).
Взгляд на измученных маленьких людей, рожденных городом... В этом сериале очень ценно, осмеяние всевозможных политкорректных представлений о семье, о вере, об арабском терроризме, об антисемитизме, о массе всяких «неудобных». Никакой деликатности. Очень острый и жесткий взгляд на жизнь. С очень интересной анимацией. Это сделано как будто скупыми средствами, но очень изобретательно.
Премьера «Monkey Dust» («38 обезьян») состоялась на BBС в 2003 году. Саундтрек для «38 обезьян» создавали «Goldfrapp», «Eels», «Boards of Canada». «38 обезьян» пять лет с успехом идет в Европе и Америке. Сериал получил престижные премии Британской Телеакадемии в номинации «лучшая комедия», создав прецедент победы анимации над стандартным скетчкомом.

После смерти одного из создателей, Гарри Томпсона, сериал был закрыт.



Страна: Великобритания
Продолжительность: серия ~ 29 минута
Перевод: Профессиональный (двухголосый закадровый feat. Леонид Парфенов)
+ Евгений Рыбов (MTV, на некоторых вырезанных сценах), по заказу телеканала 2x2

Файл
Кодек: XviD
Качество: DVDRip
Видео: Xvid, 640x352, 25 fps, ~1000 kbps, 0.176 bit/px
русская дорожка: Dolby AC3, 48000 Hz, 2 ch, 192 kbps
оригинал: MP3, 48000 Hz, 2 ch, VBR 128 kbps

Семпл


DVDRip (I repeat, DVDRip) - Разница
Английская дорожка.
Меньшее количество сцен без перевода (2x2 пересмотрел цензуру этих серий).
[*] На некоторые вырезанные сцены наложена озвучка Рыбина (те, что были выложены на официальный сайт телеканала 2x2).
General
Complete name : Monkey Dust DVDRip (rus 2x2, eng)Season 1Monkey Dust s01e01 (rus 2x2, eng).avi
Format : AVI
Format/Info : Audio Video Interleave
File size : 273 MiB
Duration : 28mn 47s
Overall bit rate : 1 328 Kbps
Writing application : VirtualDubMod 1.5.10.2 (build 2540/release)
Writing library : VirtualDubMod build 2540/release

Video
ID : 0
Format : MPEG-4 Visual
Format profile : Advanced Simple@L5
Format settings, BVOP : Yes
Format settings, QPel : No
Format settings, GMC : No warppoints
Format settings, Matrix : Default (H.263)
Muxing mode : Packed bitstream
Codec ID : XVID
Codec ID/Hint : XviD
Duration : 28mn 47s
Bit rate : 989 Kbps
Width : 640 pixels
Height : 352 pixels
Display aspect ratio : 16:9
Frame rate : 25.000 fps
Color space : YUV
Chroma subsampling : 4:2:0
Bit depth : 8 bits
Scan type : Progressive
Bits/(Pixel*Frame) : 0.176
Stream size : 204 MiB (74%)
Writing library : XviD 1.2.0.dev47 (UTC 2006-11-01)

Audio #1
ID : 1
Format : AC-3
Format/Info : Audio Coding 3
Mode extension : CM (complete main)
Codec ID : 2000
Duration : 28mn 47s
Bit rate mode : Constant
Bit rate : 192 Kbps
Channel(s) : 2 channels
Channel positions : Front: L R
Sampling rate : 48.0 KHz
Bit depth : 16 bits
Stream size : 39.5 MiB (14%)
Alignment : Split accross interleaves
Interleave, duration : 40 ms (1.00 video frame)
Interleave, preload duration : 500 ms

Audio #2
ID : 2
Format : MPEG Audio
Format version : Version 1
Format profile : Layer 3
Mode : Joint stereo
Mode extension : MS Stereo
Codec ID : 55
Codec ID/Hint : MP3
Duration : 28mn 46s
Bit rate mode : Variable
Bit rate : 128 Kbps
Channel(s) : 2 channels
Sampling rate : 48.0 KHz
Stream size : 26.6 MiB (10%)
Alignment : Aligned on interleaves
Interleave, duration : 24 ms (0.60 video frame)
Interleave, preload duration : 504 ms
Writing library : LAME3.90.
Encoding settings : -m j -V 4 -q 2 -lowpass 17.6 --abr 128
Внимание! Раздача ведётся путём добавления новых серий; при каждом добавлении создётся новый торрент. Чтобы начать докачку новой серии, пользователям необходимо сделать следующее: (1) остановить скачивание, (2) удалить старый торрент у себя из клиента (старые серии удалять не надо), (3) скачать новый торрент и запустить его у себя в клиенте вместо старого, при этом указать клиенту путь в старую папку куда и должно происходить скачивание новых серий.
Ваш клиент при этом должен произвести хеширование (проверку) старой папки (если не производит сам - помогите ему сделать это), и будет докачивать только те серии которых у вас ещё нет. Старые серии при этом не удаляются, а продолжают раздаваться!
Eсли вы уже удалили старые серии, то предотвратить повторную закачку старых серий можно, отжав галочку в соответсвующих местах при запуске нового торрента.




   Похожие торренты   Торрент   Размер 
В этой теме нет новых непрочитанных сообщений. Король обезьян / Царь Обезьян / The Monkey King / Xi you ji: Da nao tian gong (2014) HDRip-AVC от BTT-TEAM и SOUND-GROUP

62 | 7

2.18 ГБ

В этой теме нет новых непрочитанных сообщений. Король обезьян / The Lost Empire: The Legend of the Monkey King (2001) DVDRip

37 | 2

1.37 ГБ

В этой теме нет новых непрочитанных сообщений. Король обезьян / The Monkey King (2014) BDRip-AVC | L1

865 | 187

2.09 ГБ

В этой теме нет новых непрочитанных сообщений. Король обезьян / The Monkey King (2014) HDRip | L2

353 | 30

2.05 ГБ

В этой теме нет новых непрочитанных сообщений. Король обезьян / The Monkey King (2014) HDRip | L1

919 | 347

1.46 ГБ

В этой теме нет новых непрочитанных сообщений. Король обезьян / The Monkey King (2014) HDRip | L1

1695 | 344

2.05 ГБ

В этой теме нет новых непрочитанных сообщений. Король обезьян / The Monkey King (2014) WEBRip | L1

896 | 313

1.46 ГБ




Вы не можете начинать темы
Вы не можете отвечать на сообщения
Вы не можете редактировать свои сообщения
Вы не можете удалять свои сообщения
Вы не можете добавлять вложения

Перейти:  
Для Мосгорсуда, Роскомнадзора и рекламодателей: mosgorsud-torrent[собачка]yandex.ru
 Вход
ppkBB3cker v.2 © 2008-2014 @ PPK
[ Time : 0.037s | 16 Queries | GZIP : Off ]
CGP output time : 0.037s | 5 Queries | GZIP : Off

Торрент трекер RUTOR.IN, Не можете зайти на rutor.org? Какой новый адрес рутор? Какое зеркало рутор? Не работает rutor.org и зеркала? Тогда наш торрент специально для вас. Rutor.in неофициальное зеркало rutor. В случае если у Вас заблокирован rutor или вдруг Вы не можете на него зайти, то Вы без труда сможете скачать бесплатно и без рекламы последние новинки кино, игр, сериалов и прочего у нас, на Rutor.in. Не нужно использовать прокси, чтобы зайти на рутор, достаточно воспользоваться нашим ресурсом. Все новые фильмы, игры, сериалы, книги и музыка за 2013 и 2014 годы через торрент бесплатно. Скачивайте фильмы в хорошем качестве, игры для пк, xbox, playstation без регистрации. У нас вы найдете новые Зарубежные сериалы и Русские сериалы 2013, 2014, 2015 годов. Оставайтесь с нами, качайте любимые фильмы, игры, сериалы, книги и музыку.