img image001 image001 image001 image001 image001 image001 image001 image001 image001 image001 image001 image001 image001 image001 image001

Planets Sun Sun Sun
Статистика раздачи
Автор: Снежана | Размер: 1.13 ГБ | Добавлен: 27 июл 2013
Раздают: 208    Качают: 2
Скачать торрент
Скачать торрент
Описание торрента

СообщениеДобавлено: 27 июл 2013 

#77

Информация о фильме
Название: Робоцып
Оригинальное название: Robot Chicken
Год выхода: 2010
Жанр: Мультсериал, комедия, пародия, кукольный
В ролях: Сет Грин, Мэттью Сенрейх и другие.

Описание: «Робоцып» — калейдоскоп коротких скетчей, полных чёрного юмора и сатиры . Практически каждая сценка пародирует кино, телешоу, компьютерные игры, героев мультфильмов и комиксов, актёров, политиков, певцов и других знаменитостей, а также продукты питания, рекламные ролики или прочие проявления массовой культуры. Все серии объединены общим сюжетом, по которому некий безумный учёный оживил курицу, привязал её к креслу и заставил смотреть несколько телевизоров сразу. Причём смены скетчей выполнены в виде переключения каналов.



Страна: США
Продолжительность: серия ~ 11 минут
Перевод: Любительский (одноголосый, закадровый) - SerGoLeOne

Файл
Кодек: XviD
Качество: HDTVRip
Видео: Xvid 624x352 23.98fps 1058kbps
русская дорожка: Dolby AC3 48000Hz stereo 192kbps,
оригинал: MPEG Audio Layer 3 48000Hz stereo 128kbps

Семпл


5 сезон:
00. Robot Chicken's DP Christmas Special (2011)
01. Saving Private Gigli
02. Terms of Endaredevil
03. Big Trouble in Little Clerks 2
04. Kramer Vs. Showgirls
05. Malcolm X: Fully Loaded
06. Major League of Extraordinary Gentlemen
07. Schindler's Bucket List
08. No Country For Old Dogs
09. Catch Me If You Kangaroo Jack
General
Complete name : E:МультсериалыRobot Chicken S05 [SerGoLeOne]Robot Chicken Christmas Special (2011) [SerGoLeOne].avi
Format : AVI
Format/Info : Audio Video Interleave
File size : 116 MiB
Duration : 11mn 10s
Overall bit rate : 1 452 Kbps
Writing application : VirtualDubModRus 1.5.10.2 (build 2542/release)
Writing library : VirtualDubMod build 2542/release

Video
ID : 0
Format : MPEG-4 Visual
Format profile : Advanced Simple@L5
Format settings, BVOP : Yes
Format settings, QPel : No
Format settings, GMC : No warppoints
Format settings, Matrix : Default (H.263)
Codec ID : XVID
Codec ID/Hint : XviD
Duration : 11mn 10s
Bit rate : 1 112 Kbps
Width : 624 pixels
Height : 352 pixels
Display aspect ratio : 16:9
Frame rate : 23.976 fps
Color space : YUV
Chroma subsampling : 4:2:0
Bit depth : 8 bits
Scan type : Progressive
Compression mode : Lossy
Bits/(Pixel*Frame) : 0.211
Stream size : 88.9 MiB (77%)
Writing library : XviD 1.2.1 (UTC 2008-12-04)

Audio #1
ID : 1
Format : AC-3
Format/Info : Audio Coding 3
Mode extension : CM (complete main)
Codec ID : 2000
Duration : 11mn 10s
Bit rate mode : Constant
Bit rate : 192 Kbps
Channel(s) : 2 channels
Channel positions : Front: L R
Sampling rate : 48.0 KHz
Bit depth : 16 bits
Compression mode : Lossy
Stream size : 15.4 MiB (13%)
Alignment : Split accross interleaves
Interleave, duration : 42 ms (1.00 video frame)
Interleave, preload duration : 500 ms

Audio #2
ID : 2
Format : MPEG Audio
Format version : Version 1
Format profile : Layer 3
Mode : Joint stereo
Mode extension : MS Stereo
Codec ID : 55
Codec ID/Hint : MP3
Duration : 11mn 10s
Bit rate mode : Variable
Bit rate : 128 Kbps
Channel(s) : 2 channels
Sampling rate : 48.0 KHz
Compression mode : Lossy
Stream size : 10.4 MiB (9%)
Alignment : Aligned on interleaves
Interleave, duration : 24 ms (0.58 video frame)
Interleave, preload duration : 502 ms
Writing library : LAME3.90.
Encoding settings : -m j -V 4 -q 2 -lowpass 17.6 --abr 128
Внимание! Раздача ведётся путём добавления новых серий; при каждом добавлении создётся новый торрент. Чтобы начать докачку новой серии, пользователям необходимо сделать следующее: (1) остановить скачивание, (2) удалить старый торрент у себя из клиента (старые серии удалять не надо), (3) скачать новый торрент и запустить его у себя в клиенте вместо старого, при этом указать клиенту путь в старую папку куда и должно происходить скачивание новых серий.
Ваш клиент при этом должен произвести хеширование (проверку) старой папки (если не производит сам - помогите ему сделать это), и будет докачивать только те серии которых у вас ещё нет. Старые серии при этом не удаляются, а продолжают раздаваться!
Eсли вы уже удалили старые серии, то предотвратить повторную закачку старых серий можно, отжав галочку в соответсвующих местах при запуске нового торрента.




   Похожие торренты   Торрент   Размер 
В этой теме нет новых непрочитанных сообщений. Робоцып: Звездные войны Эпизод III / Robot Chicken: Star Wars Episode III (2010) HDTVRip by JIexa

19 | 4

1.15 ГБ

В этой теме нет новых непрочитанных сообщений. Робоцып: Звездные войны Эпизод III / Robot Chicken: Star Wars Episode III (2010) HDTVRip by JIexa

31 | 4

350.03 МБ

В этой теме нет новых непрочитанных сообщений. Робоцып: Звездные войны 3 / Robot Chicken: Star Wars III (2010) BDRip 720p

52 | 3

1.84 ГБ

В этой теме нет новых непрочитанных сообщений. Робоцып / Robot Chicken [06x01-04] (2012) HDRip 720p

17 | 2

1.18 ГБ

В этой теме нет новых непрочитанных сообщений. Робоцып / Robot Chicken [S04] (2008-2009) DVDRip by JIexa

226 | 10

2.98 ГБ

В этой теме нет новых непрочитанных сообщений. Робоцып / Robot Chicken [8x00] (2015) WEBRip 1080p | Jaskier

346 | 6

1.37 ГБ

В этой теме нет новых непрочитанных сообщений. Робоцып: Звездные войны I / Robot Chicken: Star Wars I (2007) DVDRip by JIexa

57 | 10

349.76 МБ




Вы не можете начинать темы
Вы не можете отвечать на сообщения
Вы не можете редактировать свои сообщения
Вы не можете удалять свои сообщения
Вы не можете добавлять вложения

Перейти:  
Для Мосгорсуда, Роскомнадзора и рекламодателей: mosgorsud-torrent[собачка]yandex.ru
 Вход
ppkBB3cker v.2 © 2008-2014 @ PPK
[ Time : 0.049s | 15 Queries | GZIP : Off ]

Торрент трекер RUTOR.IN, Не можете зайти на rutor.org? Какой новый адрес рутор? Какое зеркало рутор? Не работает rutor.org и зеркала? Тогда наш торрент специально для вас. Rutor.in неофициальное зеркало rutor. В случае если у Вас заблокирован rutor или вдруг Вы не можете на него зайти, то Вы без труда сможете скачать бесплатно и без рекламы последние новинки кино, игр, сериалов и прочего у нас, на Rutor.in. Не нужно использовать прокси, чтобы зайти на рутор, достаточно воспользоваться нашим ресурсом. Все новые фильмы, игры, сериалы, книги и музыка за 2013 и 2014 годы через торрент бесплатно. Скачивайте фильмы в хорошем качестве, игры для пк, xbox, playstation без регистрации. У нас вы найдете новые Зарубежные сериалы и Русские сериалы 2013, 2014, 2015 годов. Оставайтесь с нами, качайте любимые фильмы, игры, сериалы, книги и музыку.