img image001 image001 image001 image001 image001 image001 image001 image001 image001 image001 image001 image001 image001 image001 image001

Planets Sun Sun Sun
Статистика раздачи
Автор: Снежана | Размер: 2.77 ГБ | Добавлен: 27 июл 2013
Раздают: 3    Качают: 7
Скачать торрент
Скачать торрент
Описание торрента

СообщениеДобавлено: 27 июл 2013 

#77

Информация о фильме
Название: Спецагент Арчер / Арчер
Оригинальное название: Archer
Год выхода: 2009-2011
Субтитры: отсутствуют (В 7 серии 2 сезона присутствует хардсаб - переведены названия фильмов)
Жанр: Треш, чёрный юмор, комедия
В ролях: Steve Dildarian, Mary Jane Otto, Matt Johnson, Nick Kroll, Peter Giles

Описание: Действие анимационной комедии "Спецагент Арчер" разворачивается в международном шпионском агентстве ИНМБ, в котором глобальные кризисы – всего лишь возможность для суперподготовленных агентов посоревноваться между собой, используя при этом обман, предательство и другие гадостные приемчики.
Главным героем сериала является самый опасный в мире шпион — Стерлинг Арчер, известный своим пристрастием к женщинам и выпивке, а также невероятной самовлюблённостью и не слишком мужественным позывным «Герцогиня». На службе Арчеру приходится мириться со своей эксцентричной мамашей Мэлори, бывшей подружкой Ланой, озабоченной секретаршей Шерил и другими обитателями самого ужасного шпионского агенства в мире.



Страна: США
Продолжительность: серия ~ 26 минута
Перевод: Профессиональный (двухголосый, закадровый 2x2

Файл
Кодек: DivX
Аудио кодек: MP3 (1 сезон) / AC3 (2 сезон)
Качество: WEB-DLRip
Видео: 624х352, 23.976 fps, ~1000 Kbps
русская дорожка (1 сезон): MP3, 48 kHz, 128 kbps, stereo
русская дорожка (2 сезон): Dolby AC3, 48 kHz, 192 kbps, stereo
оригинал (1 серия 1 сезона): MP3, 48 kHz, 192 kbps, stereo
оригинал (остальные серии): MP3, 48 kHz, 128 kbps, stereo


1 сезон:
01. Охота на крота / Mole Hunt
02. Тренировка / Training Day
03. Разнообразие по найму / Diversity Hire
04. Убить Атнэ / Killing Utne
05. Бочка мёда / Honeypot
06. Скорпио / Skorpio
07. Небесный Титаник / Skytanic
08. Камень / The Rock
09. Предложение работы / Job Offer
10. М значит Мама / Dial M for Mother
2 сезон:
01. Маленькая мисс Швейцария / Swiss Miss
02. Не стоит хоронить ИНМБ / A Going Concern
03. Анализ крови / Blood Test
04. Страсти по газопроводу / Pipeline Fever
05. Эскадрилья Двойной Двойки / The Double Deuce
06. Трагическая история / Tragical History
07. Знаменитость / Movie Star
08. Вторая стадия / Stage Two
09. Эффект плацебо / Placebo Effect
10. Похищение / El Secuestro
11. Гран-при Монако / Jeu Monegasque
General
Complete name : S:Archer (2x2)Season 1Archer_s01e01_Mole_Hunt_(2x2).avi
Format : AVI
Format/Info : Audio Video Interleave
File size : 209 MiB
Duration : 21mn 33s
Overall bit rate : 1 358 Kbps
Writing application : VirtualDubMod 1.5.10.2 (build 2540/release)
Writing library : VirtualDubMod build 2540/release

Video
ID : 0
Format : MPEG-4 Visual
Format settings, BVOP : 1
Format settings, QPel : No
Format settings, GMC : No warppoints
Format settings, Matrix : Default (H.263)
Muxing mode : Packed bitstream
Codec ID : DX50
Codec ID/Hint : DivX 5
Duration : 21mn 33s
Bit rate : 1 024 Kbps
Width : 624 pixels
Height : 352 pixels
Display aspect ratio : 16:9
Frame rate : 23.976 fps
Color space : YUV
Chroma subsampling : 4:2:0
Bit depth : 8 bits
Scan type : Progressive
Compression mode : Lossy
Bits/(Pixel*Frame) : 0.194
Stream size : 158 MiB (75%)
Writing library : DivX 6.8.3-6.8.4 (UTC 2008-06-07)

Audio #1
ID : 1
Format : MPEG Audio
Format version : Version 1
Format profile : Layer 3
Codec ID : 55
Codec ID/Hint : MP3
Duration : 21mn 33s
Bit rate mode : Constant
Bit rate : 128 Kbps
Channel(s) : 2 channels
Sampling rate : 48.0 KHz
Compression mode : Lossy
Stream size : 19.7 MiB (9%)
Alignment : Aligned on interleaves
Interleave, duration : 42 ms (1.00 video frame)
Interleave, preload duration : 504 ms

Audio #2
ID : 2
Format : MPEG Audio
Format version : Version 1
Format profile : Layer 3
Mode : Joint stereo
Codec ID : 55
Codec ID/Hint : MP3
Duration : 21mn 33s
Bit rate mode : Constant
Bit rate : 192 Kbps
Channel(s) : 2 channels
Sampling rate : 48.0 KHz
Compression mode : Lossy
Stream size : 29.6 MiB (14%)
Alignment : Aligned on interleaves
Interleave, duration : 42 ms (1.00 video frame)
Interleave, preload duration : 504 ms
Внимание! Раздача ведётся путём добавления новых серий; при каждом добавлении создётся новый торрент. Чтобы начать докачку новой серии, пользователям необходимо сделать следующее: (1) остановить скачивание, (2) удалить старый торрент у себя из клиента (старые серии удалять не надо), (3) скачать новый торрент и запустить его у себя в клиенте вместо старого, при этом указать клиенту путь в старую папку куда и должно происходить скачивание новых серий.
Ваш клиент при этом должен произвести хеширование (проверку) старой папки (если не производит сам - помогите ему сделать это), и будет докачивать только те серии которых у вас ещё нет. Старые серии при этом не удаляются, а продолжают раздаваться!
Eсли вы уже удалили старые серии, то предотвратить повторную закачку старых серий можно, отжав галочку в соответсвующих местах при запуске нового торрента.




   Похожие торренты   Торрент   Размер 
В этой теме нет новых непрочитанных сообщений. Спецагент Арчер / Archer [S02] (2011) WEB-DLRip

23 | 20

2.53 ГБ

В этой теме нет новых непрочитанных сообщений. Спецагент Арчер / Archer [S03] (2011) WEB-DLRip | P NovaFilm

56 | 7

2.56 ГБ

В этой теме нет новых непрочитанных сообщений. Спецагент Арчер / Archer [03х01-06] (2011) WEB-DLRip | NovaFilm

0 | 2

1.19 ГБ

В этой теме нет новых непрочитанных сообщений. Спецагент Арчер / Archer [03x01] (2011) WEB-DLRip | Субтитры

0 | 2

298.33 МБ

В этой теме нет новых непрочитанных сообщений. Спецагент Арчер / Archer [S01-06] (2009-2015) WEB-DLRip | Кубик в кубе & Бяко Рекордс

59 | 100

19.63 ГБ

В этой теме нет новых непрочитанных сообщений. Спецагент Арчер / Archer [01x01-10] (2009-2010) WEB-DL

37 | 9

1.96 ГБ

В этой теме нет новых непрочитанных сообщений. Спецагент Арчер / Archer [S01] (2009) BDRip от HQRips

21 | 11

3.7 ГБ




Вы не можете начинать темы
Вы не можете отвечать на сообщения
Вы не можете редактировать свои сообщения
Вы не можете удалять свои сообщения
Вы не можете добавлять вложения

Перейти:  
Для Мосгорсуда, Роскомнадзора и рекламодателей: mosgorsud-torrent[собачка]yandex.ru
 Вход
ppkBB3cker v.2 © 2008-2014 @ PPK
[ Time : 0.031s | 15 Queries | GZIP : Off ]

cron