img image001 image001 image001 image001 image001 image001 image001 image001 image001 image001 image001 image001 image001 image001 image001

Planets Sun Sun Sun
Статистика раздачи
Автор: Снежана | Размер: 2.16 ГБ | Добавлен: 27 июл 2013
Раздают: 56    Качают: 7
Скачать торрент
Скачать торрент
Описание торрента

СообщениеДобавлено: 27 июл 2013 


Сезон 4: Друзья в опасности / Season 4: Partners in Danger


Информация о фильме
Название: Человек-паук
Оригинальное название: Spider-Man: The Animated Series
Год выхода: 1997
Жанр: мультфильм, фантастика, боевик, триллер, криминал
В ролях: Кристофер Дэниэл Барнс, Роско Ли Браун, Сара Бэллэнтайн, Родни Солсберри, Дженнифер Хейл, Эдвард Эснер, Гари Имхофф, Линда Гэри, Максвелл Колфилд, Джозеф Кампанелла

Описание: Случайный укус радиоактивного паука на научной выставке даровал нескладному школьнику Питеру Паркеру невероятные паучьи способности. Когда грабитель убил его любимого дядю Бена, Питер решает использовать свои удивительные силы, чтобы защищать людей. Он навсегда запомнил слова своего дяди: «Чем больше сила, тем больше и ответственность!». Он становится Человеком-Пауком, бесстрашным героем в маске.

Страна: США
Продолжительность: серия ~ 22 минута
Перевод: Профессиональный (многоголосый, закадровый)

Файл
Качество: DVDRip-AVC
Видео: 592x454, 25 fps, AVC MPEG-4, ~1250 kbps
русская дорожка: 48 kHz, AAC-LC, 2/0 (L,R) ch, ~124 kbps

Семпл


General
Complete name : 404 The Return of Kraven.mp4
Format : MPEG-4
Format profile : Base Media
Codec ID : isom
File size : 201 MiB
Duration : 20mn 3s
Overall bit rate : 1 399 Kbps
Encoded date : UTC 2011-01-14 16:38:58
Tagged date : UTC 2011-01-14 16:38:58

Video
ID : 1
Format : AVC
Format/Info : Advanced Video Codec
Format profile : High@L3.1
Format settings, CABAC : Yes
Format settings, ReFrames : 4 frames
Codec ID : avc1
Codec ID/Info : Advanced Video Coding
Duration : 20mn 3s
Bit rate mode : Variable
Bit rate : 1 271 Kbps
Maximum bit rate : 4 562 Kbps
Width : 592 pixels
Height : 454 pixels
Display aspect ratio : 4:3
Frame rate mode : Constant
Frame rate : 25.000 fps
Color space : YUV
Chroma subsampling : 4:2:0
Bit depth : 8 bits
Scan type : Progressive
Bits/(Pixel*Frame) : 0.189
Stream size : 182 MiB (91%)
Title : Imported with GPAC 0.4.6-DEV (build 1)
Writing library : x264 core 92 r1510 33d382a
Encoding settings : cabac=1 / ref=4 / deblock=1:-2:-1 / analyse=0x3:0x133 / me=umh / subme=9 / psy=1 / psy_rd=1.00:0.20 / mixed_ref=1 / me_range=16 / chroma_me=1 / trellis=2 / 8x8dct=1 / cqm=0 / deadzone=21,11 / fast_pskip=0 / chroma_qp_offset=-3 / threads=6 / sliced_threads=0 / nr=0 / decimate=0 / interlaced=0 / constrained_intra=0 / bframes=6 / b_pyramid=2 / b_adapt=2 / b_bias=0 / direct=3 / wpredb=1 / wpredp=2 / keyint=250 / keyint_min=25 / scenecut=40 / intra_refresh=0 / rc_lookahead=40 / rc=2pass / mbtree=1 / bitrate=1271 / ratetol=1.0 / qcomp=0.60 / qpmin=10 / qpmax=51 / qpstep=4 / cplxblur=20.0 / qblur=0.5 / vbv_maxrate=50000 / vbv_bufsize=50000 / ip_ratio=1.40 / aq=1:1.00 / nal_hrd=none
Encoded date : UTC 2011-01-14 16:38:58
Tagged date : UTC 2011-01-14 16:39:02

Audio
ID : 2
Format : AAC
Format/Info : Advanced Audio Codec
Format profile : LC
Codec ID : 40
Duration : 20mn 3s
Bit rate mode : Variable
Bit rate : 124 Kbps
Maximum bit rate : 139 Kbps
Channel(s) : 2 channels
Channel positions : Front: L R
Sampling rate : 48.0 KHz
Compression mode : Lossy
Stream size : 17.8 MiB (9%)
Encoded date : UTC 2011-01-14 16:39:02
Tagged date : UTC 2011-01-14 16:39:02
1. Guilty
2. The Cat
3. The Black Cat
4. The Return of Kraven
5. Partners
6. The Awakening
7. The Vampire Queen
8. The Return of the Green Goblin
9. The Haunting of Mary Jane
10. The Lizard King
11. The Prowler




   Похожие торренты   Торрент   Размер 
В этой теме нет новых непрочитанных сообщений. Человек-паук / Spider-Man: The Animated Series [S01] (1994) DVDRip-AVC

69 | 7

2.55 ГБ

В этой теме нет новых непрочитанных сообщений. Человек-паук / Spider-Man: The Animated Series [S05] (1998) DVDRip-AVC

77 | 7

2.55 ГБ

В этой теме нет новых непрочитанных сообщений. Человек-паук / Spider-Man: The Animated Series [S03] (1996) DVDRip-AVC

34 | 3

2.75 ГБ

В этой теме нет новых непрочитанных сообщений. Человек-паук / Spider-Man: The Animated Series [S02] (1995) DVDRip-AVC

42 | 2

2.74 ГБ

В этой теме нет новых непрочитанных сообщений. Человек-Паук / Spider-Man: The Animated Series (1994) DVDRip-AVC от New-Team

76 | 31

3.17 ГБ

В этой теме нет новых непрочитанных сообщений. Новый Человек-паук / Spider-Man: The New Animated Series [S1] (2003) DVDRip

41 | 40

3.21 ГБ

В этой теме нет новых непрочитанных сообщений. Человек-паук / Spider-Man: The Animated Series [S01-05] (1994-1998) DVDRip

120 | 74

16.92 ГБ




Вы не можете начинать темы
Вы не можете отвечать на сообщения
Вы не можете редактировать свои сообщения
Вы не можете удалять свои сообщения
Вы не можете добавлять вложения

Перейти:  
Для Мосгорсуда, Роскомнадзора и рекламодателей: mosgorsud-torrent[собачка]yandex.ru
 Вход
ppkBB3cker v.2 © 2008-2014 @ PPK
[ Time : 0.021s | 14 Queries | GZIP : Off ]

Торрент трекер RUTOR.IN, Не можете зайти на rutor.org? Какой новый адрес рутор? Какое зеркало рутор? Не работает rutor.org и зеркала? Тогда наш торрент специально для вас. Rutor.in неофициальное зеркало rutor. В случае если у Вас заблокирован rutor или вдруг Вы не можете на него зайти, то Вы без труда сможете скачать бесплатно и без рекламы последние новинки кино, игр, сериалов и прочего у нас, на Rutor.in. Не нужно использовать прокси, чтобы зайти на рутор, достаточно воспользоваться нашим ресурсом. Все новые фильмы, игры, сериалы, книги и музыка за 2013 и 2014 годы через торрент бесплатно. Скачивайте фильмы в хорошем качестве, игры для пк, xbox, playstation без регистрации. У нас вы найдете новые Зарубежные сериалы и Русские сериалы 2013, 2014, 2015 годов. Оставайтесь с нами, качайте любимые фильмы, игры, сериалы, книги и музыку.