img image001 image001 image001 image001 image001 image001 image001 image001 image001 image001 image001 image001 image001 image001 image001

Planets Sun Sun Sun
Статистика раздачи
Автор: Снежана | Размер: 1.98 ГБ | Добавлен: 27 июл 2013
Раздают: 4    Качают: 1
Скачать торрент
Скачать торрент
Описание торрента

СообщениеДобавлено: 27 июл 2013 


#77

Информация о фильме
Название: Жизнь и приключения Тима
Оригинальное название: The Life & Times of Tim
Год выхода: 2010
Жанр: Треш, чёрный юмор, комедия
В ролях: Steve Dildarian, Mary Jane Otto, Matt Johnson, Nick Kroll, Peter Gile

Описание: Он простой парень. Без выкрутасов, наворотов, престижной работы, сногсшибательно красивой девушки, машины и собственного дома. Но количество неудач и приключений, которые сыпятся на его бедную голову, превышает все мыслимые и немыслимые нормы. Не без помощи верных коллег и знакомой проститутки, вечно ошивающейся около его места жительства. Это жизнь Тима. Без прикрас.

Страна: США
Продолжительность: серия ~ 22 минута
Перевод: Профессиональный (двухголосый, закадровый) 2x2

Файл
Кодек: XviD
Качество: HDTVRip
Видео: 624x352 23.98fps 705 Kbps
русская дорожка: Dolby AC3 48000Hz stereo 192kbps
оригинал: MPEG Audio Layer 3 48000Hz stereo 128kbps


General
Complete name : S:The Life and Times of Tim - Season 2 - HDTVRip [2x2, eng]The.Life.and.Times.of.Tim.S02E02.avi
Format : AVI
Format/Info : Audio Video Interleave
File size : 214 MiB
Duration : 28mn 47s
Overall bit rate : 1 039 Kbps
Writing application : VirtualDubMod 1.5.10.2 (build 2542/release)
Writing library : VirtualDubMod build 2542/release

Video
ID : 0
Format : MPEG-4 Visual
Format profile : Advanced Simple@L5
Format settings, BVOP : 2
Format settings, QPel : No
Format settings, GMC : No warppoints
Format settings, Matrix : Default (H.263)
Muxing mode : Packed bitstream
Codec ID : XVID
Codec ID/Hint : XviD
Duration : 28mn 47s
Bit rate : 705 Kbps
Width : 624 pixels
Height : 352 pixels
Display aspect ratio : 16:9
Frame rate : 23.976 fps
Color space : YUV
Chroma subsampling : 4:2:0
Bit depth : 8 bits
Scan type : Progressive
Compression mode : Lossy
Bits/(Pixel*Frame) : 0.134
Stream size : 145 MiB (68%)
Writing library : XviD 1.2.1 (UTC 2008-12-04)

Audio #1
ID : 1
Format : AC-3
Format/Info : Audio Coding 3
Mode extension : CM (complete main)
Codec ID : 2000
Duration : 28mn 47s
Bit rate mode : Constant
Bit rate : 192 Kbps
Channel(s) : 2 channels
Channel positions : Front: L R
Sampling rate : 48.0 KHz
Bit depth : 16 bits
Compression mode : Lossy
Stream size : 39.5 MiB (18%)
Alignment : Split accross interleaves
Interleave, duration : 42 ms (1.00 video frame)
Interleave, preload duration : 500 ms

Audio #2
ID : 2
Format : MPEG Audio
Format version : Version 1
Format profile : Layer 3
Mode : Joint stereo
Mode extension : MS Stereo
Codec ID : 55
Codec ID/Hint : MP3
Duration : 27mn 17s
Bit rate mode : Variable
Bit rate : 135 Kbps
Nominal bit rate : 128 Kbps
Channel(s) : 2 channels
Sampling rate : 48.0 KHz
Compression mode : Lossy
Stream size : 26.4 MiB (12%)
Alignment : Split accross interleaves
Interleave, duration : 42 ms (1.00 video frame)
Interleave, preload duration : 500 ms
Writing library : LAME3.96r
Encoding settings : -m j -V 4 -q 3 -lowpass 17.5 --abr 128
Внимание! Раздача ведётся путём добавления новых серий; при каждом добавлении создётся новый торрент. Чтобы начать докачку новой серии, пользователям необходимо сделать следующее: (1) остановить скачивание, (2) удалить старый торрент у себя из клиента (старые серии удалять не надо), (3) скачать новый торрент и запустить его у себя в клиенте вместо старого, при этом указать клиенту путь в старую папку куда и должно происходить скачивание новых серий.
Ваш клиент при этом должен произвести хеширование (проверку) старой папки (если не производит сам - помогите ему сделать это), и будет докачивать только те серии которых у вас ещё нет. Старые серии при этом не удаляются, а продолжают раздаваться!
Eсли вы уже удалили старые серии, то предотвратить повторную закачку старых серий можно, отжав галочку в соответсвующих местах при запуске нового торрента.




   Похожие торренты   Торрент   Размер 
В этой теме нет новых непрочитанных сообщений. Жизнь и приключения Тима / The Life & Times of Tim [S01] (2008) DVDRip

1 | 2

1.6 ГБ

В этой теме нет новых непрочитанных сообщений. Жизнь и приключения Джунипер Ли / The Life and Times of Juniper Lee [01-03x01-36] (2005-2007) SATRip | D

24 | 18

7.36 ГБ

В этой теме нет новых непрочитанных сообщений. Жизнь и времена судьи Роя Бина / The Life and Times of Judge Roy Bean (1972) DVDRip - Generalfilm

0 | 4

2.06 ГБ

В этой теме нет новых непрочитанных сообщений. Жизнь и приключения Робота-подростка / My Life As a Teenage Robot [S01-03] (2003-2009) DVDRip

10 | 15

35.04 ГБ

В этой теме нет новых непрочитанных сообщений. Приключения Флика / Жизнь жуков / A Bug's Life (1998) HDRip | D

173 | 12

747.12 МБ

В этой теме нет новых непрочитанных сообщений. Жизнь жуков / Приключения Флика / A Bug's Life (1998) BDRip от ExKinoRay

10 | 2

1.45 ГБ

В этой теме нет новых непрочитанных сообщений. Приключения Флика / Жизнь жуков / A Bug's Life (1998) BDRip от HQCLUB

6 | 4

2.9 ГБ




Вы не можете начинать темы
Вы не можете отвечать на сообщения
Вы не можете редактировать свои сообщения
Вы не можете удалять свои сообщения
Вы не можете добавлять вложения

Перейти:  
Для Мосгорсуда, Роскомнадзора и рекламодателей: mosgorsud-torrent[собачка]yandex.ru
 Вход
ppkBB3cker v.2 © 2008-2014 @ PPK
[ Time : 0.048s | 15 Queries | GZIP : Off ]

Торрент трекер RUTOR.IN, Не можете зайти на rutor.org? Какой новый адрес рутор? Какое зеркало рутор? Не работает rutor.org и зеркала? Тогда наш торрент специально для вас. Rutor.in неофициальное зеркало rutor. В случае если у Вас заблокирован rutor или вдруг Вы не можете на него зайти, то Вы без труда сможете скачать бесплатно и без рекламы последние новинки кино, игр, сериалов и прочего у нас, на Rutor.in. Не нужно использовать прокси, чтобы зайти на рутор, достаточно воспользоваться нашим ресурсом. Все новые фильмы, игры, сериалы, книги и музыка за 2013 и 2014 годы через торрент бесплатно. Скачивайте фильмы в хорошем качестве, игры для пк, xbox, playstation без регистрации. У нас вы найдете новые Зарубежные сериалы и Русские сериалы 2013, 2014, 2015 годов. Оставайтесь с нами, качайте любимые фильмы, игры, сериалы, книги и музыку.
cron