img image001 image001 image001 image001 image001 image001 image001 image001 image001 image001 image001 image001 image001 image001 image001

Planets Sun Sun Sun
Статистика раздачи
Автор: Снежана | Размер: 746.03 МБ | Добавлен: 27 июл 2013
Раздают: 10    Качают: 3
Скачать торрент
Скачать торрент
Описание торрента

СообщениеДобавлено: 27 июл 2013 

#77

Информация о фильме
Название: Бунт пернатых
Оригинальное название: Plumíferos - Aventuras voladoras
Год выхода: 2010
Жанр: мультфильм, приключения, семейный
Режиссер: Дэниэл Дефилиппо /Daniel De Felippo/, Густаво Джаннини /Gustavo Giannini/
В ролях: Мариано Мартинез /Mariano Martínez/, Луисана Лопилато /Luisana Lopilato/, Карла Петерсон /Carla Peterson/, Пето Менахем /Peto Menahem/, Луис Мачин /Luis Machín/, Эстебан Проль /Esteban Prol/, Фабио Ди Томасо /Fabio Di Tomaso/

О фильме:
Эта увлекательная и полная приключений история происходит с птицами, обитающими в городе. Обычный воробей Хуан вдруг почувствовал себя уникальным и во что бы то ни стало пытается это доказать своим сородичам. А красавица-канарейка Фефи-хочет стать свободной и улетает из клетки, пытаясь начать новую, независимую жизнь. Ведь свобода-это так естественно для птиц!

Страна: Аргентина
Продолжительность: 01:20:01
Перевод: Профессиональный (многоголосый, закадровый) | Лицензия

Файл
Кодек: XviD / MP3
Качество: DVDRip
Видео: XviD, 720x416 (16:9), 25.000 fps, 1 168 Kbps (0.156 bit/pixel)
Звук: MP3, 48.0 KHz, 2 ch, 128 Kbps, CBR (Russian)

General
Complete name : E:Plumíferos-Aventuras.voladoras_[Rutor.org].avi
Format : AVI
Format/Info : Audio Video Interleave
File size : 746 MiB
Duration : 1h 20mn
Overall bit rate : 1 304 Kbps
Writing application : VirtualDubMod 1.5.4.1 (build 2178/release)
Writing library : VirtualDubMod build 2178/release

Video
ID : 0
Format : MPEG-4 Visual
Format profile : Advanced Simple@L5
Format settings, BVOP : 1
Format settings, QPel : No
Format settings, GMC : No warppoints
Format settings, Matrix : Custom
Codec ID : XVID
Codec ID/Hint : XviD
Duration : 1h 20mn
Bit rate : 1 168 Kbps
Width : 720 pixels
Height : 416 pixels
Display aspect ratio : 16:9
Frame rate : 25.000 fps
Color space : YUV
Chroma subsampling : 4:2:0
Bit depth : 8 bits
Scan type : Progressive
Compression mode : Lossy
Bits/(Pixel*Frame) : 0.156
Stream size : 669 MiB (90%)
Writing library : XviD 64

Audio
ID : 1
Format : MPEG Audio
Format version : Version 1
Format profile : Layer 3
Mode : Joint stereo
Codec ID : 55
Codec ID/Hint : MP3
Duration : 1h 20mn
Bit rate mode : Constant
Bit rate : 128 Kbps
Channel(s) : 2 channels
Sampling rate : 48.0 KHz
Compression mode : Lossy
Stream size : 73.3 MiB (10%)
Alignment : Aligned on interleaves
Interleave, duration : 80 ms (2.00 video frames)
Interleave, preload duration : 504 ms
Writing library : LAME3.98r
Encoding settings : -m j -V 4 -q 2 -lowpass 17 -b 128
Language : Russian




   Похожие торренты   Торрент   Размер 
В этой теме нет новых непрочитанных сообщений. Бунт пернатых / Свободные птицы / Plumíferos - Aventuras voladoras (2010) DVDRip | Лицензия

29 | 4

1.37 ГБ

В этой теме нет новых непрочитанных сообщений. Свободные птицы / Бунт пернатых / Plumíferos - Aventuras voladoras (2010) DVD5 | Лицензия

1 | 2

4.36 ГБ

В этой теме нет новых непрочитанных сообщений. Тэд Джонс и Затерянный город / Las aventuras de Tadeo Jones (2012) BDRip-AVC от Youtracker | D | лицензия

17 | 1

1.74 ГБ

В этой теме нет новых непрочитанных сообщений. Тэд Джонс и Затерянный город / Las aventuras de Tadeo Jones (2012) BDRip от Youtracker | D | лицензия

20 | 6

744.9 МБ

В этой теме нет новых непрочитанных сообщений. Тэд Джонс и Затерянный город / Las aventuras de Tadeo Jones (2012) BDRip 720p | Лицензия

12 | 1

4.66 ГБ

В этой теме нет новых непрочитанных сообщений. Тэд Джонс и Затерянный город / Las aventuras de Tadeo Jones (2012) BDRip от Youtracker | D | лицензия

46 | 3

1.74 ГБ

В этой теме нет новых непрочитанных сообщений. Бунт ушастых / Hop (2011) HDRip | Лицензия

22 | 2

702.11 МБ




Вы не можете начинать темы
Вы не можете отвечать на сообщения
Вы не можете редактировать свои сообщения
Вы не можете удалять свои сообщения
Вы не можете добавлять вложения

Перейти:  
Для Мосгорсуда, Роскомнадзора и рекламодателей: mosgorsud-torrent[собачка]yandex.ru
 Вход
ppkBB3cker v.2 © 2008-2014 @ PPK
[ Time : 0.057s | 14 Queries | GZIP : Off ]

Торрент трекер RUTOR.IN, Не можете зайти на rutor.org? Какой новый адрес рутор? Какое зеркало рутор? Не работает rutor.org и зеркала? Тогда наш торрент специально для вас. Rutor.in неофициальное зеркало rutor. В случае если у Вас заблокирован rutor или вдруг Вы не можете на него зайти, то Вы без труда сможете скачать бесплатно и без рекламы последние новинки кино, игр, сериалов и прочего у нас, на Rutor.in. Не нужно использовать прокси, чтобы зайти на рутор, достаточно воспользоваться нашим ресурсом. Все новые фильмы, игры, сериалы, книги и музыка за 2013 и 2014 годы через торрент бесплатно. Скачивайте фильмы в хорошем качестве, игры для пк, xbox, playstation без регистрации. У нас вы найдете новые Зарубежные сериалы и Русские сериалы 2013, 2014, 2015 годов. Оставайтесь с нами, качайте любимые фильмы, игры, сериалы, книги и музыку.