img image001 image001 image001 image001 image001 image001 image001 image001 image001 image001 image001 image001 image001 image001 image001

Planets Sun Sun Sun
Статистика раздачи
Автор: Снежана | Размер: 1.01 ГБ | Добавлен: 27 июл 2013
Раздают: 17    Качают: 4
Скачать торрент
Скачать торрент
Описание торрента

СообщениеДобавлено: 27 июл 2013 


#77

Информация о фильме
Название: Трансформеры: Прайм
Оригинальное название: Transformers Prime
Год выхода: 2010
Жанр: Меха, Приключения Мультипликация
В ролях: Питер Каллен, Фрэнк Уэлкер, Стивен Блум, Джеффри Комбс, Сумали Монтано, Кевин Майкл Ричардсон, Таня Гунади, Джошуа Китон, Энди Пессоа, Эрни Хадсон и др.

Описание: Трансформеры: Прайм являются очередной франшизой сериала Трансформеры, который вышел осенью 2010 года.
Новые Трансформеры идут по сюжету Transformers: War for Cybertron, основанный на видеоигре, в которой события происходят на родной планете Трансформеров.
Новая история войны Десептиконов и Автоботов происходит на Земле.
В то время, пока идет война между роботами, Мегатрон пытается найти и управлять Темным Энергоном, чтобы с его помощью уничтожить Автоботов.



Страна: США, Япония
Продолжительность: ~ 00:23:00
Перевод: Профессиональный (многоголосый, закадровый) VO-production + Glanz

Файл
Кодек: XviD
Качество: WEB-DLRip
Видео: 720x400 (1.80:1) 23.976 fps XviD MPEG-4 1100 kbps avg 0.16 bit/pixel
русская дорожка: 48 kHz AC3 Dolby Digital 2/0 (L,R) ch 192.00 kbps avg

Семпл


Darkness Rising: Part 1
Darkness Rising: Part II
Darkness Rising: Part III
Darkness Rising: Part IV
[*]Darkness Rising: Part V
General
Complete name : C:Transformers_Prime_0101_WEB-DLrip_VO-production.avi
Format : AVI
Format/Info : Audio Video Interleave
File size : 206 MiB
Duration : 22mn 8s
Overall bit rate : 1 299 Kbps
Writing application : VirtualDubMod 1.5.10.2 (build 2540/release)
Writing library : VirtualDubMod build 2540/release

Video
ID : 0
Format : MPEG-4 Visual
Format profile : Advanced Simple@L5
Format settings, BVOP : Yes
Format settings, QPel : No
Format settings, GMC : No warppoints
Format settings, Matrix : Default (H.263)
Muxing mode : Packed bitstream
Codec ID : XVID
Codec ID/Hint : XviD
Duration : 22mn 8s
Bit rate : 1 098 Kbps
Width : 720 pixels
Height : 400 pixels
Display aspect ratio : 16:9
Frame rate : 23.976 fps
Resolution : 8 bits
Colorimetry : 4:2:0
Scan type : Progressive
Bits/(Pixel*Frame) : 0.159
Stream size : 174 MiB (84%)
Writing library : XviD 1.2.0.dev47 (UTC 2006-11-01)

Audio
ID : 1
Format : AC-3
Format/Info : Audio Coding 3
Codec ID : 2000
Duration : 22mn 8s
Bit rate mode : Constant
Bit rate : 192 Kbps
Channel(s) : 2 channels
Channel positions : L R
Sampling rate : 48.0 KHz
Stream size : 30.4 MiB (15%)
Alignment : Split accross interleaves
Interleave, duration : 42 ms (1.00 video frame)
Interleave, preload duration : 500 ms
Внимание! Раздача ведётся путём добавления новых серий; при каждом добавлении создётся новый торрент. Чтобы начать докачку новой серии, пользователям необходимо сделать следующее: (1) остановить скачивание, (2) удалить старый торрент у себя из клиента (старые серии удалять не надо), (3) скачать новый торрент и запустить его у себя в клиенте вместо старого, при этом указать клиенту путь в старую папку куда и должно происходить скачивание новых серий.
Ваш клиент при этом должен произвести хеширование (проверку) старой папки (если не производит сам - помогите ему сделать это), и будет докачивать только те серии которых у вас ещё нет. Старые серии при этом не удаляются, а продолжают раздаваться!
Eсли вы уже удалили старые серии, то предотвратить повторную закачку старых серий можно, отжав галочку в соответсвующих местах при запуске нового торрента.




   Похожие торренты   Торрент   Размер 
В этой теме нет новых непрочитанных сообщений. Трансформеры: Прайм / Transformers Prime [S01-S03] + Трансформеры: Прайм – Звериные Охотники: Восстание Предаконов (2010 - 2013) WEB-DLRip, HDRip от R.G.RealMT | L, D

230 | 83

27.96 ГБ

В этой теме нет новых непрочитанных сообщений. Трансформеры: Прайм / Transformers Prime [S01-S03] + Трансформеры: Прайм – Звериные Охотники: Восстание Предаконов (2010 - 2013) WEB-DLRip, HDRip от R.G.RealMT | КПК | L, D

226 | 26

5.51 ГБ

В этой теме нет новых непрочитанных сообщений. Трансформеры: Прайм / Transformers Prime [S01] (2010) WEB-DLRip

122 | 19

5.62 ГБ

В этой теме нет новых непрочитанных сообщений. Трансформеры: Прайм / Transformers Prime [01x01-10 из 26] (2010) 2xDVD9 от Youtracker | D | Лицензия

0 | 13

12.09 ГБ

В этой теме нет новых непрочитанных сообщений. Трансформеры: Прайм / Transformers Prime [01x01-26 из 26] (2010-2011) 5xDVD9 от New-Team | D | Лицензия

14 | 20

31.41 ГБ

В этой теме нет новых непрочитанных сообщений. Трансформеры: Прайм / Transformers Prime [S01] (2010) WEB-DL 720p

15 | 9

18.67 ГБ

В этой теме нет новых непрочитанных сообщений. Трансформеры Прайм / Transformers Prime [S02] (2012) WEB-DLRip

40 | 10

6.05 ГБ




Вы не можете начинать темы
Вы не можете отвечать на сообщения
Вы не можете редактировать свои сообщения
Вы не можете удалять свои сообщения
Вы не можете добавлять вложения

Перейти:  
Для Мосгорсуда, Роскомнадзора и рекламодателей: mosgorsud-torrent[собачка]yandex.ru
 Вход
ppkBB3cker v.2 © 2008-2014 @ PPK
[ Time : 0.051s | 15 Queries | GZIP : Off ]

cron