img image001 image001 image001 image001 image001 image001 image001 image001 image001 image001 image001 image001 image001 image001 image001

Planets Sun Sun Sun
Статистика раздачи
Автор: Снежана | Размер: 17.28 МБ | Добавлен: 27 июл 2013
Раздают: 0    Качают: 2
Скачать торрент
Скачать торрент
Описание торрента

СообщениеДобавлено: 27 июл 2013 




Информация о фильме
Название: Гриффины
Оригинальное название: Family Guy
Год выхода: 2011
Жанр: Мультсериал, комедия, пародия
В ролях: Seth MacFarlane, Alex Borstein, Seth Green, Chris Griffin, Mila Kunis, Mike Henry, Danny Smith, Patrick Warburton, Lori Alan

Описание: "Гриффины" (Family Guy) - анимационное ТВ-Шоу, созданное Сетом МакФерлайном (Seth MacFarlane) для телеканала FOX. Как нетрудно догадаться, главными героями шоу является семейка Гриффинов: тупой, но полный сумашедших идей, составляющих львиную долю шуток сериала, отец семейства Питер; его любящя и терпеливая жена Лойс, всеми силами пытающаяся превратить Гриффинов в нормальную семью; их интеллектуально развитый не по годам, вынашивающий идею мирового господства младший сын Стьюи; дочь-ботаник, обречённая из-за этого на одиночество и непонимание как в школе так и дома, Мэг; и 13-ти летний отсталый в развитии лет на 10, сын Крис. Также полноценным членом семьи является пёс Брайн - склонный к меланхолии эстет, спокойно наблюдающий с бокалом вина в лапе над приключениями Питера и остальных членов семьи (и это при всём притом, что остальные собаки в сериале не являются очеловеченными).



Страна: США
Продолжительность: 00:02:50
Перевод: Профессиональный (многоголосый закадровый) -

Файл
Кодек: XviD
Качество: WEB-DLRip
Видео: 854 x 480 (1.779) at 19.183 fps
русская дорожка: AAC at 122 Кбит/сек


Общее
Полное имя : D:ТоррентFamily Guy_Anons_10 sezona! (FiliZa Studio).mp4
Формат : MPEG-4
Профиль формата : Base Media
Идентификатор кодека : isom
Размер файла : 17,3 Мбайт
Продолжительность : 2 м. 50 с.
Общий поток : 852 Кбит/сек
Программа кодирования : Lavf52.40.0

Видео
Идентификатор : 1
Формат : AVC
Формат/Информация : Advanced Video Codec
Профиль формата : High@L3.0
Параметр CABAC формата : Да
Параметр ReFrames формата : 3 кадра
Идентификатор кодека : avc1
Идентификатор кодека/Информация : Advanced Video Coding
Продолжительность : 2 м. 50 с.
Вид битрейта : Переменный
Битрейт : 724 Кбит/сек
Номинальный битрейт : 800 Кбит/сек
Ширина : 854 пикс.
Высота : 480 пикс.
Соотношение сторон : 16:9
Режим частоты кадров : Переменный
Частота кадров : 19,183 кадр/сек
Частота кадров в оригинале : 25,000 кадр/сек
Минимальная частота кадров : 12,500 кадр/сек
Максимальная частота кадров : 25,000 кадр/сек
Цветовое пространство : YUV
Подвыборка цветности : 4:2:0
Битовая глубина : 8 бит
Тип развёртки : Прогрессивная
Бит/(Пиксели*Кадры) : 0.092
Размер потока : 14,7 Мбайт (85%)
Библиотека кодирования : x264 core 79
Настройки программы : cabac=1 / ref=3 / deblock=1:0:0 / analyse=0x3:0x113 / me=hex / subme=7 / psy=1 / psy_rd=1.0:0.0 / mixed_ref=1 / me_range=16 / chroma_me=1 / trellis=1 / 8x8dct=1 / cqm=0 / deadzone=21,11 / chroma_qp_offset=-2 / threads=24 / nr=0 / decimate=1 / mbaff=0 / constrained_intra=0 / bframes=3 / b_pyramid=0 / b_adapt=1 / b_bias=0 / direct=1 / wpredb=32 / wpredp=2 / keyint=250 / keyint_min=25 / scenecut=40 / rc_lookahead=40 / rc=abr / mbtree=1 / bitrate=800 / ratetol=5.0 / qcomp=0.60 / qpmin=10 / qpmax=51 / qpstep=4 / ip_ratio=1.41 / aq=1:1.00

Аудио
Идентификатор : 2
Формат : AAC
Формат/Информация : Advanced Audio Codec
Профиль формата : LC
Идентификатор кодека : 40
Продолжительность : 2 м. 50 с.
Вид битрейта : Переменный
Битрейт : 122 Кбит/сек
Каналы : 2 канала
Расположение каналов : Front: L R
Частота : 44,1 КГц
Метод сжатия : С потерями
Размер потока : 2,48 Мбайт (14%)





   Похожие торренты   Торрент   Размер 
В этой теме нет новых непрочитанных сообщений. Гриффины / Family Guy [S9] (2011) WEB-DLRip | FiLiZa Studio

64 | 7

3.67 ГБ

В этой теме нет новых непрочитанных сообщений. Гриффины / Family Guy [13x01-02] (2014) WEB-DLRip | FiLiZa Studio

114 | 37

773.7 МБ

В этой теме нет новых непрочитанных сообщений. Гриффины / Family Guy [12x01-06, 08-20] (2014) WEB-DLRip | FiLiZa Studio

72 | 55

3.89 ГБ

В этой теме нет новых непрочитанных сообщений. Гриффины / Family Guy [11x16] (2013) WEB-DLRip | FiLiZa Studio

3 | 2

204.76 МБ

В этой теме нет новых непрочитанных сообщений. Гриффины / Family Guy [13x01-03] (2014) WEB-DLRip | FiLiZa Studio

477 | 117

1.02 ГБ

В этой теме нет новых непрочитанных сообщений. Гриффины / Family Guy [13x01-04] (2014) WEB-DLRip | FiLiZa Studio

1151 | 231

1.29 ГБ

В этой теме нет новых непрочитанных сообщений. Гриффины / Family Guy [11x12] (2013) WEB-DLRip | FiLiZa Studio

9 | 3

194.82 МБ




Вы не можете начинать темы
Вы не можете отвечать на сообщения
Вы не можете редактировать свои сообщения
Вы не можете удалять свои сообщения
Вы не можете добавлять вложения

Перейти:  
Для Мосгорсуда, Роскомнадзора и рекламодателей: mosgorsud-torrent[собачка]yandex.ru
 Вход
ppkBB3cker v.2 © 2008-2014 @ PPK
[ Time : 0.039s | 15 Queries | GZIP : Off ]

cron