img image001 image001 image001 image001 image001 image001 image001 image001 image001 image001 image001 image001 image001 image001 image001

Planets Sun Sun Sun
Статистика раздачи
Автор: Снежана | Размер: 2.19 ГБ | Добавлен: 27 июл 2013
Раздают: 7    Качают: 5
Скачать торрент
Скачать торрент
Описание торрента

СообщениеДобавлено: 27 июл 2013 

#77

Информация о фильме
Название: Наша Маша и Волшебный орех
Год выхода: 2009
Жанр: фэнтези, приключения, семейный
Режиссер: Егор Кончаловский
В ролях: Анна Снаткина Всеволод Полищук Тимур Родригез Антон Пампушный Владимир Зайцев Оскар Кучера Николай Кузнецов

О фильме:
Школьница Маша, как и многие из нас, считает, что настоящих друзей найти в нашем мире почти невозможно. Настоящая любовь — недостижимый идеал, и, вообще, чудес не бывает. Наверное, поэтому именно с ней под Новый год начинают происходить чудеса… Она находит волшебный орех Кракатук, который переносит девочку в невероятно красивую Сказочную страну. Там ее игрушки, Буратино и плюшевый медведь, становятся мальчишками Борькой и Михеем, а робот Гоша, подаренный родителями на Новый год, самым настоящим принцем.

Но власть в Сказочной стране захватили крысы, и правит ей коварный Император. Мало того, он со своими слугами, Ником и Диком, давно охотится за волшебным орехом. Ведь Кракатук способен выполнить любое желание, а крысиный повелитель мечтает управлять всей Вселенной. Он делает Маше предложение, от каких не отказываются… К чему приведут интриги Императора? Захочет ли Маша вернуться домой, ведь тогда принц в ее мире снова станет игрушкой? К кому попадет волшебный орех в новогоднюю полночь и получится ли загадать сокровенное желание?

Страна: Россия
Продолжительность: 01:16:28
Перевод: Не требуется

Файл
Кодек: Н.264
Качество: BDRip 720p
Видео: 1280x720 , 3451Кбит/сек , 23,976 кадр/сек , 0.156 bit/pixel
Звук: 48 kHz, AC3,3/2 (L,C,R,l,r) + LFE ch, ~640.00 kbps avg
Субтитры: нет

Семпл
Общее
Уникальный идентификатор : 240480194486238369407015071552678316442 (0xB4EACCFE8FEDE1FEBE4D9324F236C99A)
Полное имя : D:торрентNasha.Masha.i.Volshebnyi.oreh.2009.BDRip720p.mkv
Формат : Matroska
Версия формата : Version 2
Размер файла : 2,19 Гбайт
Продолжительность : 1 ч. 16 м.
Общий поток : 4090 Кбит/сек
Дата кодирования : UTC 2011-08-04 07:26:07
Программа кодирования : mkvmerge v4.9.1 ('Ich will') built on Jul 11 2011 23:53:15
Библиотека кодирования : libebml v1.2.1 + libmatroska v1.1.1

Видео
Идентификатор : 1
Формат : AVC
Формат/Информация : Advanced Video Codec
Профиль формата : High@L4.1
Параметр CABAC формата : Да
Параметр ReFrames формата : 9 кадров
Идентификатор кодека : V_MPEG4/ISO/AVC
Продолжительность : 1 ч. 16 м.
Битрейт : 3451 Кбит/сек
Ширина : 1280 пикс.
Высота : 720 пикс.
Соотношение сторон : 16:9
Частота кадров : 23,976 кадр/сек
Цветовое пространство : YUV
Подвыборка цветности : 4:2:0
Битовая глубина : 8 бит
Тип развёртки : Прогрессивная
Бит/(Пиксели*Кадры) : 0.156
Размер потока : 1,80 Гбайт (82%)
Библиотека кодирования : x264 core 116 r2044 392e762
Настройки программы : cabac=1 / ref=9 / deblock=1:1:1 / analyse=0x3:0x113 / me=umh / subme=9 / psy=1 / psy_rd=0.40:0.00 / mixed_ref=1 / me_range=32 / chroma_me=1 / trellis=1 / 8x8dct=1 / cqm=0 / deadzone=21,11 / fast_pskip=0 / chroma_qp_offset=-2 / threads=6 / sliced_threads=0 / nr=0 / decimate=1 / interlaced=0 / bluray_compat=0 / constrained_intra=0 / bframes=8 / b_pyramid=2 / b_adapt=2 / b_bias=0 / direct=3 / weightb=1 / open_gop=0 / weightp=2 / keyint=250 / keyint_min=23 / scenecut=40 / intra_refresh=0 / rc_lookahead=50 / rc=2pass / mbtree=1 / bitrate=3451 / ratetol=1.0 / qcomp=0.60 / qpmin=0 / qpmax=69 / qpstep=4 / cplxblur=20.0 / qblur=0.5 / ip_ratio=1.40 / aq=1:0.60
Язык : English

Аудио
Идентификатор : 2
Формат : AC-3
Формат/Информация : Audio Coding 3
Расширение режима : CM (complete main)
Идентификатор кодека : A_AC3
Продолжительность : 1 ч. 16 м.
Вид битрейта : Постоянный
Битрейт : 640 Кбит/сек
Каналы : 6 каналов
Расположение каналов : Front: L C R, Side: L R, LFE
Частота : 48,0 КГц
Битовая глубина : 16 бит
Метод сжатия : С потерями
Размер потока : 350 Мбайт (16%)
Язык : Russian

Меню
00:00:00.000 : en:00:00:00.000
00:09:36.910 : en:00:09:36.910
00:19:56.862 : en:00:19:56.862
00:28:18.071 : en:00:28:18.071
00:38:56.125 : en:00:38:56.125
00:51:39.513 : en:00:51:39.513
01:03:06.574 : en:01:03:06.574
01:11:26.240 : en:01:11:26.240



Релиз от:



   Похожие торренты   Торрент   Размер 
В этой теме нет новых непрочитанных сообщений. Наша Маша и Волшебный орех (2009) BDRip от HQCLUB

81 | 11

1.45 ГБ

В этой теме нет новых непрочитанных сообщений. Наша Маша и Волшебный орех (2009) BDRip 1080p

6 | 7

7 ГБ

В этой теме нет новых непрочитанных сообщений. Наша Маша и Волшебный Орех (2009) PC

30 | 5

1.13 ГБ

В этой теме нет новых непрочитанных сообщений. Наша Маша и Волшебный орех (2009) DVDRip

2 | 4

1.2 ГБ

В этой теме нет новых непрочитанных сообщений. Наша Маша и Волшебный Орех (2009) PC | Репак

7 | 3

306.96 МБ

В этой теме нет новых непрочитанных сообщений. Наша Маша и Волшебный орех (2009) DVDRip

46 | 7

699.88 МБ

В этой теме нет новых непрочитанных сообщений. Наша Маша и Волшебный орех (2009) DVDRip

17 | 7

1.37 ГБ




Вы не можете начинать темы
Вы не можете отвечать на сообщения
Вы не можете редактировать свои сообщения
Вы не можете удалять свои сообщения
Вы не можете добавлять вложения

Перейти:  
Для Мосгорсуда, Роскомнадзора и рекламодателей: mosgorsud-torrent[собачка]yandex.ru
 Вход
ppkBB3cker v.2 © 2008-2014 @ PPK
[ Time : 0.593s | 16 Queries | GZIP : On ]

Торрент трекер RUTOR.IN, Не можете зайти на rutor.org? Какой новый адрес рутор? Какое зеркало рутор? Не работает rutor.org и зеркала? Тогда наш торрент специально для вас. Rutor.in неофициальное зеркало rutor. В случае если у Вас заблокирован rutor или вдруг Вы не можете на него зайти, то Вы без труда сможете скачать бесплатно и без рекламы последние новинки кино, игр, сериалов и прочего у нас, на Rutor.in. Не нужно использовать прокси, чтобы зайти на рутор, достаточно воспользоваться нашим ресурсом. Все новые фильмы, игры, сериалы, книги и музыка за 2013 и 2014 годы через торрент бесплатно. Скачивайте фильмы в хорошем качестве, игры для пк, xbox, playstation без регистрации. У нас вы найдете новые Зарубежные сериалы и Русские сериалы 2013, 2014, 2015 годов. Оставайтесь с нами, качайте любимые фильмы, игры, сериалы, книги и музыку.