img image001 image001 image001 image001 image001 image001 image001 image001 image001 image001 image001 image001 image001 image001 image001 image001

Planets Sun Sun Sun
Статистика раздачи
Автор: Снежана | Размер: 7.66 ГБ | Добавлен: 27 июл 2013
Раздают: 106    Качают: 4
Скачать торрент
Скачать торрент
Описание торрента

СообщениеДобавлено: 27 июл 2013 

Рапунцель: Запутанная история / Tangled (2010) 720p BDRip
от HQCLUB



Название: Рапунцель: Запутанная история
Оригинальное название: Tangled
Год выхода: 2010
Жанр: мультфильм, комедия, семейный, фэнтези, мелодрама, мюзикл
Режиссер: Нэйтан Грено / Nathan Greno, Байрон Ховард / Byron Howard
Роли озвучивали: Мэнди Мур, Захари Левай, Донна Мерфи, Рон Перлман, М. К. Гейни, Джефри Тэмбор, Брэд Гэррет, Пол Ф. Томпкинс, Ричард Кил, Делани Роуз Стейн

О фильме: Обаятельный разбойник Флинн путешествует по жизни с легкостью, лишь потому, что он красив, болтлив и удачлив. И казалось, фортуна всегда на его стороне, пока однажды он не выбирает высокую башню в густой чаще леса в качестве «спокойного» убежища. Флинн оказывается связанным по рукам и ногам юной красавицей по имени Рапунцель.

Если вы думаете, что самое интересное в ней — это 21 метр волшебных золотистых волос, то вы заблуждаетесь! Запертая в башне и отчаянно ищущая приключений, Рапунцель решает использовать Флинна в качестве билета в большой мир. Сначала комичное похищение, затем невинный шантаж — и вот наши герои на воле. Вместе с главными героями в авантюрное путешествие отправятся бравый конь-ищейка Максимус, ручной хамелеон и шайка сумасбродных разбойников.


КиноПоиск Топ250: #85

Релиз от -
Автор релиза: DaniLch

Выпущено: США | Walt Disney Pictures
Продолжительность: 01:40:57

Источник: Blu-ray 1080p AVC DTS-HD HR 7.1 -HDCLUB
Контейнер: MKV
Видео: 1280x720 (1.78:1), 23.976 fps, x264@L4.1, crf, ~3968 kbps
Аудио #1: Russian: 48 kHz, AC3 Dolby Digital, 3/2 (L,C,R,l,r) + LFE ch, ~640 kbps |Дубляж, Blu-ray CEE|
Аудио #2: Russian: 48 kHz/24-bit, DTS, 3/2 (L,C,R,l,r) + LFE ch, ~1536 kbps |Двухголосый закадровый, Кубик в Кубе|
Аудио #3: Russian: 48 kHz/24-bit, DTS, 3/2 (L,C,R,l,r) + LFE ch, ~1536 kbps |Одноголосый закадровый, А.Гаврилов|
Аудио #4: Russian: 48 kHz/24-bit, DTS, 3/2 (L,C,R,l,r) + LFE ch, ~1536 kbps |Одноголосый закадровый, Ю.Сербин|
Аудио #5: English: 48 kHz/24-bit, DTS, 3/2 (L,C,R,l,r) + LFE ch, ~1536 kbps
Субтитры: русские @ voronine, английские SDH, русские (на песни; для дорожки КвК)



General
Complete name : Rapuncel.Zaputannaya.istoriya.2010.BDRip.720p.H264.AC3.DTS.-HQCLUB.mkv
Format : Matroska
File size : 7.66 GiB
Duration : 1h 40mn
Overall bit rate : 10.9 Mbps
Movie name : 720p BDRip by DaniLch
Encoded date : UTC 2011-08-08 19:58:34
Writing application : mkvmerge v4.9.1 ('Ich will') built on Jul 11 2011 23:53:15
Writing library : libebml v1.2.1 + libmatroska v1.1.1
Cover : Yes / Yes / Yes / Yes

Video
ID : 1
Format : AVC
Format/Info : Advanced Video Codec
Format profile : High@L4.1
Format settings, CABAC : Yes
Format settings, ReFrames : 8 frames
Codec ID : V_MPEG4/ISO/AVC
Duration : 1h 40mn
Bit rate : 3 968 Kbps
Width : 1 280 pixels
Height : 720 pixels
Display aspect ratio : 16:9
Frame rate : 23.976 fps
Color space : YUV
Chroma subsampling : 4:2:0
Bit depth : 8 bits
Scan type : Progressive
Bits/(Pixel*Frame) : 0.180
Stream size : 2.80 GiB (37%)
Title : Рапунцель: Запутанная история / Tangled (2010)
Writing library : x264 core 115 r1995 c1e60b9
Encoding settings : cabac=1 / ref=8 / deblock=1:-3:-3 / analyse=0x3:0x113 / me=umh / subme=10 / psy=1 / psy_rd=0.92:0.10 / mixed_ref=1 / me_range=32 / chroma_me=1 / trellis=2 / 8x8dct=1 / cqm=0 / deadzone=21,11 / fast_pskip=0 / chroma_qp_offset=0 / threads=6 / sliced_threads=0 / nr=0 / decimate=1 / interlaced=0 / bluray_compat=0 / constrained_intra=0 / bframes=6 / b_pyramid=2 / b_adapt=2 / b_bias=0 / direct=3 / weightb=1 / open_gop=0 / weightp=2 / keyint=250 / keyint_min=23 / scenecut=40 / intra_refresh=0 / rc_lookahead=40 / rc=crf / mbtree=1 / crf=14.0 / qcomp=0.60 / qpmin=10 / qpmax=51 / qpstep=4 / vbv_maxrate=50000 / vbv_bufsize=62500 / crf_max=0.0 / nal_hrd=none / ip_ratio=1.40 / aq=1:1.00
Language : English
Color primaries : BT.709-5, BT.1361, IEC 61966-2-4, SMPTE RP177
Transfer characteristics : BT.709-5, BT.1361
Matrix coefficients : BT.709-5, BT.1361, IEC 61966-2-4 709, SMPTE RP177

Audio #1
ID : 2
Format : AC-3
Format/Info : Audio Coding 3
Mode extension : CM (complete main)
Codec ID : A_AC3
Duration : 1h 40mn
Bit rate mode : Constant
Bit rate : 640 Kbps
Channel(s) : 6 channels
Channel positions : Front: L C R, Side: L R, LFE
Sampling rate : 48.0 KHz
Bit depth : 16 bits
Compression mode : Lossy
Stream size : 462 MiB (6%)
Title : AC3 5.1 @ 640 kbps - Дубляж, Blu-ray CEE
Language : Russian

Audio #2
ID : 3
Format : DTS
Format/Info : Digital Theater Systems
Codec ID : A_DTS
Duration : 1h 40mn
Bit rate mode : Constant
Bit rate : 1 510 Kbps
Channel(s) : 6 channels
Channel positions : Front: L C R, Side: L R, LFE
Sampling rate : 48.0 KHz
Bit depth : 24 bits
Compression mode : Lossy
Stream size : 1.06 GiB (14%)
Title : DTS 5.1 @ 1536 kbps - Двухголосый закадровый, Кубик в Кубе
Language : Russian

Audio #3
ID : 4
Format : DTS
Format/Info : Digital Theater Systems
Codec ID : A_DTS
Duration : 1h 40mn
Bit rate mode : Constant
Bit rate : 1 510 Kbps
Channel(s) : 6 channels
Channel positions : Front: L C R, Side: L R, LFE
Sampling rate : 48.0 KHz
Bit depth : 24 bits
Compression mode : Lossy
Stream size : 1.06 GiB (14%)
Title : DTS 5.1 @ 1536 kbps - Одноголосый закадровый, А.Гаврилов
Language : Russian

Audio #4
ID : 5
Format : DTS
Format/Info : Digital Theater Systems
Codec ID : A_DTS
Duration : 1h 40mn
Bit rate mode : Constant
Bit rate : 1 510 Kbps
Channel(s) : 6 channels
Channel positions : Front: L C R, Side: L R, LFE
Sampling rate : 48.0 KHz
Bit depth : 24 bits
Compression mode : Lossy
Stream size : 1.06 GiB (14%)
Title : DTS 5.1 @ 1536 kbps - Одноголосый закадровый, Ю.Сербин
Language : Russian

Audio #5
ID : 6
Format : DTS
Format/Info : Digital Theater Systems
Codec ID : A_DTS
Duration : 1h 40mn
Bit rate mode : Constant
Bit rate : 1 510 Kbps
Channel(s) : 6 channels
Channel positions : Front: L C R, Side: L R, LFE
Sampling rate : 48.0 KHz
Bit depth : 24 bits
Compression mode : Lossy
Stream size : 1.06 GiB (14%)
Title : DTS 5.1 @ 1536 kbps
Language : English

Text #1
ID : 7
Format : UTF-8
Codec ID : S_TEXT/UTF8
Codec ID/Info : UTF-8 Plain Text
Title : Voronine
Language : Russian

Text #2
ID : 8
Format : UTF-8
Codec ID : S_TEXT/UTF8
Codec ID/Info : UTF-8 Plain Text
Title : SDH
Language : English

Text #3
ID : 9
Format : ASS
Codec ID : S_TEXT/ASS
Codec ID/Info : Advanced Sub Station Alpha
Compression mode : Lossless
Title : Songs
Language : Russian

Menu
00:00:00.000 : en:00:00:00.000
00:08:21.084 : en:00:08:21.084
00:15:43.401 : en:00:15:43.401
00:24:41.355 : en:00:24:41.355
00:34:42.288 : en:00:34:42.288
00:42:31.007 : en:00:42:31.007
00:50:26.065 : en:00:50:26.065
00:59:22.058 : en:00:59:22.058
01:10:35.773 : en:01:10:35.773
01:19:23.550 : en:01:19:23.550
01:25:22.159 : en:01:25:22.159
01:31:21.017 : en:01:31:21.017



   Похожие торренты   Торрент   Размер 
В этой теме нет новых непрочитанных сообщений. Рапунцель: Запутанная история / Tangled (2010) BDRip от HQCLUB

716 | 16

2.19 ГБ

В этой теме нет новых непрочитанных сообщений. Рапунцель: Запутанная история / Tangled (2010) BDRip 720p | 60 fps | D, P2, A

В этой теме нет новых непрочитанных сообщений. Рапунцель: Запутанная история / Tangled (2010) BDRip 720p от FREEISLAND

4 | 3

4.38 ГБ

В этой теме нет новых непрочитанных сообщений. Рапунцель: Запутанная история / Tangled (2010) BDRip [720p] от HQ-ViDEO

195 | 5

4.68 ГБ

В этой теме нет новых непрочитанных сообщений. Рапунцель: Запутанная история 3д / Tangled 3D (2010) BDrip 720p | Анаглиф

6 | 4

7.52 ГБ

В этой теме нет новых непрочитанных сообщений. Рапунцель: Запутанная история / Tangled (2010) BDRip 720p от Leonardo and Scarabey | Лицензия

2411 | 156

2.78 ГБ

В этой теме нет новых непрочитанных сообщений. Рапунцель: Запутанная история / Tangled (2010) BDRip от HQ-ViDEO

3910 | 150

1.46 ГБ




Вы не можете начинать темы
Вы не можете отвечать на сообщения
Вы не можете редактировать свои сообщения
Вы не можете удалять свои сообщения
Вы не можете добавлять вложения

Перейти:  
 Вход
ppkBB3cker v.2 © 2008-2014 @ PPK
[ Time : 0.045s | 15 Queries | GZIP : Off ]

cron