img image001 image001 image001 image001 image001 image001 image001 image001 image001 image001 image001 image001 image001 image001 image001

Planets Sun Sun Sun
Статистика раздачи
Автор: Снежана | Размер: 22.11 ГБ | Добавлен: 27 июл 2013
Раздают: 46    Качают: 17
Скачать торрент
Скачать торрент
Описание торрента

СообщениеДобавлено: 27 июл 2013 

#77

Название: Приключения Мишек Гамми
Оригинальное название: Adventures of the Gummi Bears
Годы выхода: 1985-1991
Производитель: Walt Disney Pictures
Страна: США
Режисёр: Д. Блок /David Block/
Перевод: Профессиональный дубляж 1992 года.
Роли озвучивали: Наталья Власова - Бабушка, Виктор Петров - Колдун, король Грегор, Светлана Харлап - Малыш, Александр Клюквин - Толстун, Игторн, Всеволод Абдулов - Ворчун, Таксфорт, Людмила Гнилова - Солнышко и другие актеры.
О мультфильме: Красочный и добрый мультсериал о приключениях Мишек Гамми – сказочных медведях, тайно живущих рядом с людьми, и о которых ходят легенды по всей земле, ведь они не раз спасали королевство и подданых короля от нападений злых гоблинов под руководством хитрого графа Игторна и другой нечистой силы.
Волшебство, коварство, приключения, рыцари, драконы – всё это сказочный мир Мишек Гамми!
Размер: 3 x DVD9
Season 1
1. A New Beginning (Как это начиналось)
2. The Sinister Sculptor (Скульптор-злодей)
3. Zummi Makes It Hot (Кoлдун даёт жару)
4. Someday My Prints Will Come (След дракона)
5. Can I Keep Him? (Я хотел оставить его себе)
6. A Gummi in a Gilded Cage (Гамми в позолоченной клетке)
7. The Oracle (Прорицатель)
8. When You Wish Upon a Stone (Великан и волшебный камень)
9. A Gummi by Any Other Name (Гамми или кто-то другой)
10. Loopy, Go Home (Хитрец, домой!)
11. A-Hunting We Will Go (Мы идём на охоту)
12. The Fence Sitter (Прожорливая птица)
13. The Night of the Gargoyle (Страшная ночь)
14. The Secret of the Juice (Секрет сока Гамми)
15. Sweet and Sour Gruffi (Добрый и злой Ворчун)
16. Duel of the Wizards (Поединок волшебников)
17. What You See Is Me (Это я, ты меня видишь?)
18. Toadie's Wild Ride (Невероятное приключение Подлизы)
19. Bubble Trouble (Как пузырёк попал в беду)
20. Gummi in a Strange Land (В чужой стороне)
21. Light Makes Right (Чудесный гаммископ)
Season 2
1. Up, Up, and Away (Хочу стать рыцарем)
2. Faster Than a Speeding Tummi (Проворный Толстун)
3. For a Few Sovereigns More (За горсть монет)
4. Over the River and Through the Trolls (За рекой у троллей)
5. You Snooze, You Lose! (Не спи-замёрзнешь)
6. The Crimson Avenger (Малиновый мститель)
7. A Hard Dazed Knight (Рыцарские забавы)
8. Do Unto Ogres (Как стать большим)
9. For Whom the Spell Holds (Нелёгкая работа Колдуна)
10. Little Bears Lost (Как найти воришку)
11. Guess Who's Gumming to Dinner? (У гамми праздник)
12. My Gummi Lies Over the Ocean (За морями, за горами)
Season 3
1. Too Many Cooks (Слишком много конфет)
2. Just a Tad Smarter (Кто головастее)
3. If I Were You (Загадочные превращения)
4. Eye of the Beholder (Колдовские чары)
5. Presto Gummo (Толстун-фокусник)
6. A Tree Grows in Dunwyn (Чудесное дерево)
7. Day of the Beevilweevils (Путешествие в зубастый лес)
8. Water Way to Go (Густо и русалка)
9. Boggling the Bears (Беспокойные гости)
10. Close Encounters of the Gummi Kind (Механический медвежонок)
11. Snow's Your Old Man (Проделки ледяной бороды)
12. The Knights of Gummadoon (Рыцари ордена "Гаммадун")
13. Mirthy Me (Весельчак)
14. Gummi Dearest (Мой родной мишка)


Файл:
mediainfo (по 1 вобу)
Общее
Полное имя : ...mishki gammi_vol.1[torrents.ru]Disk 1VIDEO_TSVTS_01_1.VOB
Формат : MPEG-PS
Размер файла : 1024 Мбайт
Продолжительность : 9 м. 58 с.
Общий поток : 14,3 Мбит/сек
Библиотека кодирования : (c) 1998-2007 Womble Multimedia, Inc. / MPEG Video Wizard (04/2007) / Mar 29 2007

Видео
Идентификатор : 224 (0xE0)
Формат : MPEG Video
Версия формата : Version 2
Профиль формата : Main@Main
Параметр BVOP формата : Да
Параметр матрицы формата : По умолчанию
Продолжительность : 9 м. 58 с.
Вид битрейта : Переменный
Битрейт : 13,7 Мбит/сек
Ширина : 720 пикс.
Высота : 480 пикс.
Соотношение сторон : 4:3
Частота кадров : 29,970 кадр/сек
Стандарт вещания : NTSC
Цветовое пространство : YUV
Подвыборка цветности : 4:2:0
Битовая глубина : 8 бит
Метод сжатия : С потерями
Бит/(Пиксели*Кадры) : 1.321
Размер потока : 976 Мбайт (95%)
Библиотека кодирования : (c) 1998-2007 Womble Multimedia, Inc. / MPEG Video Wizard (04/2007) / Mar 29 2007

Аудио #1
Идентификатор : 189 (0xBD)-128 (0x80)
Формат : AC-3
Формат/Информация : Audio Coding 3
Расширение режима : CM (complete main)
Режим смешивания : DVD-Video
Продолжительность : 9 м. 58 с.
Вид битрейта : Постоянный
Битрейт : 192 Кбит/сек
Каналы : 2 канала
Расположение каналов : Front: L R
Частота : 48,0 КГц
Битовая глубина : 16 бит
Метод сжатия : С потерями
Размер потока : 13,7 Мбайт (1%)

Аудио #2
Идентификатор : 189 (0xBD)-129 (0x81)
Формат : AC-3
Формат/Информация : Audio Coding 3
Расширение режима : CM (complete main)
Режим смешивания : DVD-Video
Продолжительность : 9 м. 58 с.
Вид битрейта : Постоянный
Битрейт : 192 Кбит/сек
Каналы : 2 канала
Расположение каналов : Front: L R
Частота : 48,0 КГц
Битовая глубина : 16 бит
Метод сжатия : С потерями
Размер потока : 13,7 Мбайт (1%)

Текст #1
Идентификатор : 224 (0xE0)-DVD-2
Формат : EIA-608
Режим смешивания : DVD-Video
Режим смешивания, доп. информация : Muxed in Video #1
Размер потока : 0,00 байт (0%)

Текст #2
Идентификатор : 189 (0xBD)-32 (0x20)
Формат : RLE
Формат/Информация : Run-length encoding
Режим смешивания : DVD-Video
Общее
Полное имя : ...mishki gammi_vol.1[torrents.ru]Disk 2VIDEO_TSVTS_01_1.VOB
Формат : MPEG-PS
Размер файла : 1024 Мбайт
Продолжительность : 8 м. 54 с.
Общий поток : 16,1 Мбит/сек

Видео
Идентификатор : 224 (0xE0)
Формат : MPEG Video
Версия формата : Version 2
Профиль формата : Main@Main
Параметр BVOP формата : Да
Параметр матрицы формата : По умолчанию
Продолжительность : 8 м. 54 с.
Вид битрейта : Переменный
Битрейт : 15,4 Мбит/сек
Ширина : 720 пикс.
Высота : 480 пикс.
Соотношение сторон : 4:3
Частота кадров : 29,970 кадр/сек
Стандарт вещания : NTSC
Цветовое пространство : YUV
Подвыборка цветности : 4:2:0
Битовая глубина : 8 бит
Метод сжатия : С потерями
Бит/(Пиксели*Кадры) : 1.483
Размер потока : 979 Мбайт (96%)

Аудио #1
Идентификатор : 189 (0xBD)-128 (0x80)
Формат : AC-3
Формат/Информация : Audio Coding 3
Расширение режима : CM (complete main)
Режим смешивания : DVD-Video
Продолжительность : 8 м. 54 с.
Вид битрейта : Постоянный
Битрейт : 192 Кбит/сек
Каналы : 2 канала
Расположение каналов : Front: L R
Частота : 48,0 КГц
Битовая глубина : 16 бит
Метод сжатия : С потерями
Размер потока : 12,2 Мбайт (1%)

Аудио #2
Идентификатор : 189 (0xBD)-129 (0x81)
Формат : AC-3
Формат/Информация : Audio Coding 3
Расширение режима : CM (complete main)
Режим смешивания : DVD-Video
Продолжительность : 8 м. 54 с.
Вид битрейта : Постоянный
Битрейт : 192 Кбит/сек
Каналы : 2 канала
Расположение каналов : Front: L R
Частота : 48,0 КГц
Битовая глубина : 16 бит
Метод сжатия : С потерями
Размер потока : 12,2 Мбайт (1%)

Текст #1
Идентификатор : 189 (0xBD)-32 (0x20)
Формат : RLE
Формат/Информация : Run-length encoding
Режим смешивания : DVD-Video
Продолжительность : 8 м. 52 с.

Текст #2
Идентификатор : 224 (0xE0)-DVD-2
Формат : EIA-608
Режим смешивания : DVD-Video
Режим смешивания, доп. информация : Muxed in Video #1
Размер потока : 0,00 байт (0%)
Общее
Полное имя : ...mishki gammi_vol.1[torrents.ru]Disk 3VIDEO_TSVTS_01_1.VOB
Формат : MPEG-PS
Размер файла : 1024 Мбайт
Продолжительность : 4 м. 5 с.
Общий поток : 35,0 Мбит/сек

Видео
Идентификатор : 224 (0xE0)
Формат : MPEG Video
Версия формата : Version 2
Профиль формата : Main@Main
Параметр BVOP формата : Да
Параметр матрицы формата : По умолчанию
Продолжительность : 4 м. 5 с.
Вид битрейта : Переменный
Битрейт : 33,9 Мбит/сек
Ширина : 720 пикс.
Высота : 480 пикс.
Соотношение сторон : 4:3
Частота кадров : 29,970 кадр/сек
Стандарт вещания : NTSC
Цветовое пространство : YUV
Подвыборка цветности : 4:2:0
Битовая глубина : 8 бит
Метод сжатия : С потерями
Бит/(Пиксели*Кадры) : 3.273
Размер потока : 992 Мбайт (97%)

Аудио #1
Идентификатор : 189 (0xBD)-128 (0x80)
Формат : AC-3
Формат/Информация : Audio Coding 3
Расширение режима : CM (complete main)
Режим смешивания : DVD-Video
Продолжительность : 4 м. 5 с.
Вид битрейта : Постоянный
Битрейт : 192 Кбит/сек
Каналы : 2 канала
Расположение каналов : Front: L R
Частота : 48,0 КГц
Битовая глубина : 16 бит
Метод сжатия : С потерями
Размер потока : 5,61 Мбайт (1%)

Аудио #2
Идентификатор : 189 (0xBD)-129 (0x81)
Формат : AC-3
Формат/Информация : Audio Coding 3
Расширение режима : CM (complete main)
Режим смешивания : DVD-Video
Продолжительность : 4 м. 5 с.
Вид битрейта : Постоянный
Битрейт : 192 Кбит/сек
Каналы : 2 канала
Расположение каналов : Front: L R
Частота : 48,0 КГц
Битовая глубина : 16 бит
Метод сжатия : С потерями
Размер потока : 5,61 Мбайт (1%)

Текст #1
Идентификатор : 189 (0xBD)-32 (0x20)
Формат : RLE
Формат/Информация : Run-length encoding
Режим смешивания : DVD-Video
Продолжительность : 4 м. 3 с.

Текст #2
Идентификатор : 224 (0xE0)-DVD-2
Формат : EIA-608
Режим смешивания : DVD-Video
Режим смешивания, доп. информация : Muxed in Video #1
Размер потока : 0,00 байт (0%)

Качество: DVD9
Формат: DVD Video
Видео: NTCS 4:3 (720x480) VBR
Аудио: English (Dolby AC3, 2 ch) Russian (Dolby AC3, 2 ch) 192 kbps

Релиз от: Andrik'а

1 диск

2 диск

3 диск




   Похожие торренты   Торрент   Размер 
В этой теме нет новых непрочитанных сообщений. Приключения Мишек Гамми / Мишки Гамми / Adventures of the Gummi Bears [S01-06] (1985-1991) DVDRip от Sanjar & NeoJet | КПК

485 | 140

4.21 ГБ

В этой теме нет новых непрочитанных сообщений. Приключения Мишек Гамми / Adventures of the Gummi Bears [S01-06] (1985-1991) 12хDVD9

9 | 10

70.62 ГБ

В этой теме нет новых непрочитанных сообщений. Приключения Мишек Гамми / Adventures of the Gummi Bears [S01-06] (1985-1991) DVDRip-AVC

464 | 222

21.31 ГБ

В этой теме нет новых непрочитанных сообщений. Мишки Буни: Тайна цирка / Boonie Bears III (2016) WEB-DL 1080p | iTunes

72 | 0

3.36 ГБ

В этой теме нет новых непрочитанных сообщений. Мишки Буни: Тайна цирка / Boonie Bears III (2016) WEB-DLRip от MegaPeer | iTunes

123 | 1

745.3 МБ

В этой теме нет новых непрочитанных сообщений. Мишки Буни: Тайна цирка / Boonie Bears III (2016) WEB-DLRip от MegaPeer | iTunes

1953 | 18

1.46 ГБ

В этой теме нет новых непрочитанных сообщений. Заботливые Мишки: Путешествие в Шутляндию / Care Bears: Journey to Joke-a-Lot (2004) DVDRip-AVC от KinoRay & Sheikn

177 | 41

1.6 ГБ




Вы не можете начинать темы
Вы не можете отвечать на сообщения
Вы не можете редактировать свои сообщения
Вы не можете удалять свои сообщения
Вы не можете добавлять вложения

Перейти:  
Для Мосгорсуда, Роскомнадзора и рекламодателей: mosgorsud-torrent[собачка]yandex.ru
 Вход
ppkBB3cker v.2 © 2008-2014 @ PPK
[ Time : 0.048s | 14 Queries | GZIP : Off ]

Торрент трекер RUTOR.IN, Не можете зайти на rutor.org? Какой новый адрес рутор? Какое зеркало рутор? Не работает rutor.org и зеркала? Тогда наш торрент специально для вас. Rutor.in неофициальное зеркало rutor. В случае если у Вас заблокирован rutor или вдруг Вы не можете на него зайти, то Вы без труда сможете скачать бесплатно и без рекламы последние новинки кино, игр, сериалов и прочего у нас, на Rutor.in. Не нужно использовать прокси, чтобы зайти на рутор, достаточно воспользоваться нашим ресурсом. Все новые фильмы, игры, сериалы, книги и музыка за 2013 и 2014 годы через торрент бесплатно. Скачивайте фильмы в хорошем качестве, игры для пк, xbox, playstation без регистрации. У нас вы найдете новые Зарубежные сериалы и Русские сериалы 2013, 2014, 2015 годов. Оставайтесь с нами, качайте любимые фильмы, игры, сериалы, книги и музыку.