img image001 image001 image001 image001 image001 image001 image001 image001 image001 image001 image001 image001 image001 image001 image001

Planets Sun Sun Sun
Статистика раздачи
Автор: Снежана | Размер: 4.38 ГБ | Добавлен: 27 июл 2013
Раздают: 5    Качают: 1
Скачать торрент
Скачать торрент
Описание торрента

СообщениеДобавлено: 27 июл 2013 

#77

Страна: США
Жанр: мультфильм, фэнтези, мелодрама, комедия, приключения
Год выпуска: 2011
Продолжительность: 01:20:22
Перевод: Профессиональный (дублированный) [Лицензия]
Cубтитры: русские, украинские
Режиссер: Келли Эсбёри / Kelly Asbury
Роли озвучивали: Джеймс МакЭвой, Эмили Блант, Эшли Дженсен, Майкл Кейн, Мэтт Лукас, Джим Каммингс, Мэгги Смит, Джейсон Стэтхэм, Оззи Осборн, Стивен Мерчант
Описание: Интерпретация пьесы Уильяма Шекспира, в которой противоборствуют семьи садовых гномов и гномов домашних.
Доп. материалы: Нет
Меню: частично анимированное, озвученное



Тип релиза: DVD5 (Сжатый) Видео не сжато!
Видео
Идентификатор : 224 (0xE0)
Формат : MPEG Video
Версия формата : Version 2
Профиль формата : Main@Main
Параметр BVOP формата : Да
Параметр матрицы формата : По умолчанию
Продолжительность : 18 м.
Вид битрейта : Переменный
Битрейт : 6559 Кбит/сек
Номинальный битрейт : 9800 Кбит/сек
Ширина : 720 пикс.
Высота : 576 пикс.
Соотношение сторон : 16:9
Частота кадров : 25,000 кадр/сек
Стандарт вещания : PAL
Цветовое пространство : YUV
Подвыборка цветности : 4:2:0
Битовая глубина : 8 бит
Тип развёртки : Чересстрочная
Порядок развёртки : Верхнее поле первое
Метод сжатия : С потерями
Бит/(Пиксели*Кадры) : 0.633
Размер потока : 854 Мбайт (83%)

Аудио #1
Идентификатор : 189 (0xBD)-128 (0x80)
Формат : AC-3
Формат/Информация : Audio Coding 3
Расширение режима : CM (complete main)
Режим смешивания : DVD-Video
Продолжительность : 18 м.
Вид битрейта : Постоянный
Битрейт : 384 Кбит/сек
Каналы : 6 каналов
Расположение каналов : Front: L C R, Side: L R, LFE
Частота : 48,0 КГц
Битовая глубина : 16 бит
Метод сжатия : С потерями
Размер потока : 50,0 Мбайт (5%)

Аудио #2
Идентификатор : 189 (0xBD)-129 (0x81)
Формат : AC-3
Формат/Информация : Audio Coding 3
Расширение режима : CM (complete main)
Режим смешивания : DVD-Video
Продолжительность : 18 м.
Вид битрейта : Постоянный
Битрейт : 384 Кбит/сек
Каналы : 6 каналов
Расположение каналов : Front: L C R, Side: L R, LFE
Частота : 48,0 КГц
Битовая глубина : 16 бит
Метод сжатия : С потерями
Размер потока : 50,0 Мбайт (5%)

Аудио #3
Идентификатор : 189 (0xBD)-130 (0x82)
Формат : AC-3
Формат/Информация : Audio Coding 3
Расширение режима : CM (complete main)
Режим смешивания : DVD-Video
Продолжительность : 18 м.
Вид битрейта : Постоянный
Битрейт : 384 Кбит/сек
Каналы : 6 каналов
Расположение каналов : Front: L C R, Side: L R, LFE
Частота : 48,0 КГц
Битовая глубина : 16 бит
Метод сжатия : С потерями
Размер потока : 50,0 Мбайт (5%)

Текст #1
Идентификатор : 189 (0xBD)-32 (0x20)
Формат : RLE
Формат/Информация : Run-length encoding
Режим смешивания : DVD-Video

Текст #2
Идентификатор : 189 (0xBD)-33 (0x21)
Формат : RLE
Формат/Информация : Run-length encoding
Режим смешивания : DVD-Video

Контейнер: DVD-VideoВидео: PAL 16:9 (720x576@1024x576) MPEG Video, 25 кадр/сек
Аудио 1: Русский (Dolby AC3, 6 ch) 384 Кбит/сек, 48,0 КГц
Аудио 2: Украинский (Dolby AC3, 6 ch) 384 Кбит/сек, 48,0 КГц
Аудио 3: Английский (Dolby AC3, 6 ch) 384 Кбит/сек, 48,0 КГц
Релиз сделан из DVD9 [исх. лицензия R5 - 7.7 GB GB, PAL 16:9],
Обработано в DVDRemake Pro, MuxMan, Photoshop
Основное видео не сжато. Несильно сжаты (где-то на 23%) финальные титры.
Удалено: реклама, заставки, дополнительные материалы и русская дорожка DTS.
Лишние кнопки затерты и закрыты.
Работоспособность проверена на KMPlayer , PowerDVD и бытовом JVC
Записано программой ImgBurn на DVD-RW болванку
Релиз by j1o2k3e4r5





   Похожие торренты   Торрент   Размер 
В этой теме нет новых непрочитанных сообщений. Гномео и Джульетта / Gnomeo & Juliet (2011) DVD9

0 | 7

7.7 ГБ

В этой теме нет новых непрочитанных сообщений. Гномео и Джульетта / Gnomeo & Juliet (2011) BDRemux

0 | 1

21.12 ГБ

В этой теме нет новых непрочитанных сообщений. Гномео и Джульетта / Gnomeo & Juliet (2011) BDRip от HQCLUB

114 | 6

1.45 ГБ

В этой теме нет новых непрочитанных сообщений. Гномео и Джульетта / Gnomeo & Juliet (2011) HDRip от CoNSoLeR | PSP

1 | 2

358.16 МБ

В этой теме нет новых непрочитанных сообщений. Гномео и Джульетта / Gnomeo & Juliet (2011) BDRip 1080p

87 | 7

4.38 ГБ

В этой теме нет новых непрочитанных сообщений. Гномео и Джульетта / Gnomeo & Juliet (2011) BDRip от HQ-ViDEO

7 | 3

2.12 ГБ

В этой теме нет новых непрочитанных сообщений. Гномео и Джульетта / Gnomeo & Juliet (2011) BDRip от HELLYWOOD

4 | 2

1.68 ГБ




Вы не можете начинать темы
Вы не можете отвечать на сообщения
Вы не можете редактировать свои сообщения
Вы не можете удалять свои сообщения
Вы не можете добавлять вложения

Перейти:  
Для Мосгорсуда, Роскомнадзора и рекламодателей: mosgorsud-torrent[собачка]yandex.ru
 Вход
ppkBB3cker v.2 © 2008-2014 @ PPK
[ Time : 0.073s | 14 Queries | GZIP : Off ]

Торрент трекер RUTOR.IN, Не можете зайти на rutor.org? Какой новый адрес рутор? Какое зеркало рутор? Не работает rutor.org и зеркала? Тогда наш торрент специально для вас. Rutor.in неофициальное зеркало rutor. В случае если у Вас заблокирован rutor или вдруг Вы не можете на него зайти, то Вы без труда сможете скачать бесплатно и без рекламы последние новинки кино, игр, сериалов и прочего у нас, на Rutor.in. Не нужно использовать прокси, чтобы зайти на рутор, достаточно воспользоваться нашим ресурсом. Все новые фильмы, игры, сериалы, книги и музыка за 2013 и 2014 годы через торрент бесплатно. Скачивайте фильмы в хорошем качестве, игры для пк, xbox, playstation без регистрации. У нас вы найдете новые Зарубежные сериалы и Русские сериалы 2013, 2014, 2015 годов. Оставайтесь с нами, качайте любимые фильмы, игры, сериалы, книги и музыку.