img image001 image001 image001 image001 image001 image001 image001 image001 image001 image001 image001 image001 image001 image001 image001

Planets Sun Sun Sun
Статистика раздачи
Автор: Снежана | Размер: 6.42 ГБ | Добавлен: 27 июл 2013
Раздают: 0    Качают: 3
Скачать торрент
Скачать торрент
Описание торрента

СообщениеДобавлено: 27 июл 2013 

#77

Страна: США, Walt Disney Pictures
Жанр: Анимация, семейный
Продолжительность: 01:17:37
Год выпуска: 1995
Перевод: Профессиональный (многоголосый закадровый)
Русские субтитры: нет
Режиссёр: Кевин Лима / Kevin Lima
Роли озвучивали: Отец Гуфи: Бил Фармер (Bill Farmer), Гуфи младший: Джейсон Марсден (Jason Marsden), Питер Пит (отец Пиджея): Джим Камминг (Jim Cummings), Роксана: Келли Мартин (Kellie Martin), Пиджей: Роб Паулсен (Rob Paulsen),
Описание: Компания Уолта Диснея подарила детям и взрослым, не забывшим, что это такое, замечательный мультипликационный полнометражный фильм про забавного пса Гуфи и его семью. Гуфи живет в современной среде среднего класса Америки пригородов. Он учится в школе, в которой учится она, одна и единственная по имени Роксана. Гуфи хочет выделиться, прославиться, как и все в этом счастливом возрасте, столь насыщенном и огорчениями. он хочет, чтобы Роксана заметила его. И не просто заметила. Как он этого добивается, пусть дети узнают сами. Хорошая анимация, песни, музыка, танцы и множество смешных ситуаций - всё сделано в лучших традициях молодёжной комедии, решенной средствами мультипликации.
Доп. материалы без перевода и без субтитров: Трейлеры к фильму, Мультсериал (одна серия "Семейный Слёт"), Альбом Гуфи, Рекламные ролики, Клип

Файл:
Видео
Идентификатор : 224 (0xE0)
Формат : MPEG Video
Версия формата : Version 2
Профиль формата : Main@Main
Параметр BVOP формата : Да
Параметр матрицы формата : По умолчанию
Продолжительность : 24 м.
Вид битрейта : Переменный
Битрейт : 4865 Кбит/сек
Номинальный битрейт : 7502 Кбит/сек
Ширина : 720 пикс.
Высота : 480 пикс.
Соотношение сторон : 4:3
Частота кадров : 29,970 кадр/сек
Стандарт вещания : NTSC
Цветовое пространство : YUV
Подвыборка цветности : 4:2:0
Битовая глубина : 8 бит
Метод сжатия : С потерями
Бит/(Пиксели*Кадры) : 0.470
Размер потока : 867 Мбайт (85%)

Аудио #1
Идентификатор : 189 (0xBD)-128 (0x80)
Формат : AC-3
Формат/Информация : Audio Coding 3
Расширение режима : CM (complete main)
Режим смешивания : DVD-Video
Продолжительность : 24 м.
Вид битрейта : Постоянный
Битрейт : 192 Кбит/сек
Каналы : 2 канала
Расположение каналов : Front: L R
Частота : 48,0 КГц
Битовая глубина : 16 бит
Метод сжатия : С потерями
Задержка видео : -66 мс.
Размер потока : 34,2 Мбайт (3%)

Аудио #2
Идентификатор : 189 (0xBD)-129 (0x81)
Формат : AC-3
Формат/Информация : Audio Coding 3
Профиль формата : Dolby Digital
Расширение режима : CM (complete main)
Режим смешивания : DVD-Video
Продолжительность : 24 м.
Вид битрейта : Постоянный
Битрейт : 192 Кбит/сек
Каналы : 2 канала
Расположение каналов : Front: L R
Частота : 48,0 КГц
Битовая глубина : 16 бит
Метод сжатия : С потерями
Задержка видео : -66 мс.
Размер потока : 34,2 Мбайт (3%)

Аудио #3
Идентификатор : 189 (0xBD)-130 (0x82)
Формат : AC-3
Формат/Информация : Audio Coding 3
Профиль формата : Dolby Digital
Расширение режима : CM (complete main)
Режим смешивания : DVD-Video
Продолжительность : 24 м.
Вид битрейта : Постоянный
Битрейт : 192 Кбит/сек
Каналы : 2 канала
Расположение каналов : Front: L R
Частота : 48,0 КГц
Битовая глубина : 16 бит
Метод сжатия : С потерями
Задержка видео : -66 мс.
Размер потока : 34,2 Мбайт (3%)

Аудио #4
Идентификатор : 189 (0xBD)-131 (0x83)
Формат : AC-3
Формат/Информация : Audio Coding 3
Профиль формата : Dolby Digital
Расширение режима : CM (complete main)
Режим смешивания : DVD-Video
Продолжительность : 24 м.
Вид битрейта : Постоянный
Битрейт : 192 Кбит/сек
Каналы : 2 канала
Расположение каналов : Front: L R
Частота : 48,0 КГц
Битовая глубина : 16 бит
Метод сжатия : С потерями
Задержка видео : -66 мс.
Размер потока : 34,2 Мбайт (3%)

Текст #1
Идентификатор : 189 (0xBD)-32 (0x20)
Формат : RLE
Формат/Информация : Run-length encoding
Режим смешивания : DVD-Video
Продолжительность : 24 м.
Задержка видео : 23 с.

Текст #2
Идентификатор : 189 (0xBD)-33 (0x21)
Формат : RLE
Формат/Информация : Run-length encoding
Режим смешивания : DVD-Video
Продолжительность : 24 м.
Задержка видео : 25 с.

Текст #3
Идентификатор : 224 (0xE0)-DVD-2
Формат : EIA-608
Режим смешивания : DVD-Video
Режим смешивания, доп. информация : Muxed in Video #1
Размер потока : 0,00 байт (0%)

Диск выложен из личного архива: SelinaAnt
Качество: DVD9
Формат: DVD-video
Видео: NTSC 4:3 (720x480) VBR
Аудио 1: Русский: Dolby AC3 48000Hz stereo 192Kbps
Аудио 2: Английский: Dolby AC3 48000Hz stereo 192Kbps
Аудио 3: Французский: Dolby AC3 48000Hz stereo 192Kbps
Аудио 4: Испанский: Dolby AC3 48000Hz stereo 192Kbps
Субтитры: Английские, Испанские



   Похожие торренты   Торрент   Размер 
В этой теме нет новых непрочитанных сообщений. OST. Каникулы Гуфи / A Goofy Movie (1995) MP3

1 | 2

70.26 МБ

В этой теме нет новых непрочитанных сообщений. Каникулы Гуфи / A Goofy Movie (1995) DVDRip

21 | 5

1.45 ГБ

В этой теме нет новых непрочитанных сообщений. Каникулы Гуфи / A Goofy Movie (1995) HDTV

109 | 12

4.23 ГБ

В этой теме нет новых непрочитанных сообщений. Каникулы Гуфи / A Goofy Movie (1995) DVDRip

2 | 4

896.59 МБ

В этой теме нет новых непрочитанных сообщений. Каникулы Гуфи / A Goofy Movie (1995) DVDRip от Gold Cartoon KINOREAKTOR (Sheikn)

109 | 6

1.42 ГБ

В этой теме нет новых непрочитанных сообщений. Неисправимый Гуфи / Экстремальный Гуфи / Экстремальный спорт / An Extremely Goofy Movie (2000) DVDRip-AVC | iPad

91 | 10

966.29 МБ

В этой теме нет новых непрочитанных сообщений. Гуфи: Экстремальное кино / An Extremely Goofy Movie (2000) DVDRip

94 | 2

1.46 ГБ




Вы не можете начинать темы
Вы не можете отвечать на сообщения
Вы не можете редактировать свои сообщения
Вы не можете удалять свои сообщения
Вы не можете добавлять вложения

Перейти:  
Для Мосгорсуда, Роскомнадзора и рекламодателей: mosgorsud-torrent[собачка]yandex.ru
 Вход
ppkBB3cker v.2 © 2008-2014 @ PPK
[ Time : 0.064s | 14 Queries | GZIP : Off ]

Торрент трекер RUTOR.IN, Не можете зайти на rutor.org? Какой новый адрес рутор? Какое зеркало рутор? Не работает rutor.org и зеркала? Тогда наш торрент специально для вас. Rutor.in неофициальное зеркало rutor. В случае если у Вас заблокирован rutor или вдруг Вы не можете на него зайти, то Вы без труда сможете скачать бесплатно и без рекламы последние новинки кино, игр, сериалов и прочего у нас, на Rutor.in. Не нужно использовать прокси, чтобы зайти на рутор, достаточно воспользоваться нашим ресурсом. Все новые фильмы, игры, сериалы, книги и музыка за 2013 и 2014 годы через торрент бесплатно. Скачивайте фильмы в хорошем качестве, игры для пк, xbox, playstation без регистрации. У нас вы найдете новые Зарубежные сериалы и Русские сериалы 2013, 2014, 2015 годов. Оставайтесь с нами, качайте любимые фильмы, игры, сериалы, книги и музыку.