img image001 image001 image001 image001 image001 image001 image001 image001 image001 image001 image001 image001 image001 image001 image001

Planets Sun Sun Sun
Статистика раздачи
Автор: Снежана | Размер: 4.1 ГБ | Добавлен: 27 июл 2013
Раздают: 0    Качают: 5
Скачать торрент
Скачать торрент
Описание торрента

СообщениеДобавлено: 27 июл 2013 

#77

Информация о Фильме
Название: Фогхорн Легхорн и друзья: Врунишка из курятника
Оригинальное название: Foghorn Leghorn & Friends
Год выхода: 2010
Жанр: Мультфильм
Режиссер: Оливье Леларду

О фильме:
"Да вы счастливчики, фанаты, - я серьезно! - даже счастливей, чем был я, когда совершил пятый великий полет!". Фогхорну Легхорну, обаятельному фантазеру из курятника, есть о чем покукарекать в этих 15 классических мультипликационных сериях, 14 из которых никогда не выходили на DVD! Петушиный сборник включает 9 коротких историй Фогхорна Легхорна, в том числе о Фогги & Доги (Все петухи пойманы), суперумном Яйцеголовом мл. (Малыш Бу) и пижонистом петухе - музыканте (Бэнти зажигает). Веселье продолжается в 6 других шедеврах, благодаря очарованию храброй, героической собаки Элмера Фадда (Пес на охоте) и поразительным гримасам Гуфи Гофера (Дело Гофера). Не ждите - хватайте его! Ладно, я просто шучу, ребята!

Содержание:
01. Все петухи пойманы
02. Лисо -Террор
03. Расстроенный Легхорн
04. Ку - каре - кууууу
05. Как отлынивать от работы
06. Победа над лаской
07. Малыш Бу
08. Бэнти зажигает
09. Неопознанные яйца
10. Дело Гофера
11. Пес на охоте
12. Кухня для малышей
13. Киса, беги!
14. Две вороны из Такоса
15. Вороньи трюки

Выпущено: США, Warner Bros. Entertainment Inc.
Продолжительность: 01:37:00
Перевод: Дублированный [Лицензия]

Файл
Формат: DVD Video
Качество: DVD R5
Видео: PAL 16:9 (720x576)
Аудио: Russian / English / Czech(Ceske) (Dolby AC3, 1 ch)
Субтитры: English, Czech(Ceske), Russian
Размер: 4.10 Gb
Дополнительно: нет
Общее
Полное имя : G: utorФогхорн Легхорн и друзья Врунишка из курятника Foghorn Leghorn & FriendsVIDEO_TSVTS_01_1.VOB
Формат : MPEG-PS
Размер файла : 1024 Мбайт
Продолжительность : 4 м. 31 с.
Общий поток : 31,7 Мбит/сек

Видео
Идентификатор : 224 (0xE0)
Формат : MPEG Video
Версия формата : Version 2
Профиль формата : Main@Main
Параметр BVOP формата : Да
Параметр матрицы формата : По умолчанию
Параметры GOP формата : M=3, N=15
Продолжительность : 4 м. 31 с.
Вид битрейта : Переменный
Битрейт : 30,6 Мбит/сек
Номинальный битрейт : 7500 Кбит/сек
Ширина : 720 пикс.
Высота : 576 пикс.
Соотношение сторон : 16:9
Частота кадров : 25,000 кадр/сек
Стандарт вещания : PAL
Цветовое пространство : YUV
Подвыборка цветности : 4:2:0
Битовая глубина : 8 бит
Тип развёртки : Прогрессивная
Порядок развёртки : Верхнее поле первое
Метод сжатия : С потерями
Бит/(Пиксели*Кадры) : 2.950
Размер потока : 988 Мбайт (96%)

Аудио #1
Идентификатор : 189 (0xBD)-128 (0x80)
Формат : AC-3
Формат/Информация : Audio Coding 3
Расширение режима : CM (complete main)
Режим смешивания : DVD-Video
Продолжительность : 4 м. 30 с.
Вид битрейта : Постоянный
Битрейт : 192 Кбит/сек
Каналы : 1 канал
Расположение каналов : Front: C
Частота : 48,0 КГц
Битовая глубина : 16 бит
Метод сжатия : С потерями
Задержка видео : -80 мс.
Размер потока : 6,20 Мбайт (1%)

Аудио #2
Идентификатор : 189 (0xBD)-129 (0x81)
Формат : AC-3
Формат/Информация : Audio Coding 3
Расширение режима : CM (complete main)
Режим смешивания : DVD-Video
Продолжительность : 4 м. 30 с.
Вид битрейта : Постоянный
Битрейт : 96,0 Кбит/сек
Каналы : 1 канал
Расположение каналов : Front: C
Частота : 48,0 КГц
Битовая глубина : 16 бит
Метод сжатия : С потерями
Задержка видео : -80 мс.
Размер потока : 3,10 Мбайт (0%)

Аудио #3
Идентификатор : 189 (0xBD)-130 (0x82)
Формат : AC-3
Формат/Информация : Audio Coding 3
Расширение режима : CM (complete main)
Режим смешивания : DVD-Video
Продолжительность : 4 м. 30 с.
Вид битрейта : Постоянный
Битрейт : 192 Кбит/сек
Каналы : 1 канал
Расположение каналов : Front: C
Частота : 48,0 КГц
Битовая глубина : 16 бит
Метод сжатия : С потерями
Задержка видео : -80 мс.
Размер потока : 6,20 Мбайт (1%)

Текст #1
Идентификатор : 189 (0xBD)-32 (0x20)
Формат : RLE
Формат/Информация : Run-length encoding
Режим смешивания : DVD-Video

Текст #2
Идентификатор : 189 (0xBD)-33 (0x21)
Формат : RLE
Формат/Информация : Run-length encoding
Режим смешивания : DVD-Video

Текст #3
Идентификатор : 189 (0xBD)-34 (0x22)
Формат : RLE
Формат/Информация : Run-length encoding
Режим смешивания : DVD-Video

Меню





   Похожие торренты   Торрент   Размер 
В этой теме нет новых непрочитанных сообщений. Фогхорн Легхорн и друзья: Врунишка из курятника / Foghorn Leghorn & Friends (2010) DVDRip

1 | 8

1.37 ГБ

В этой теме нет новых непрочитанных сообщений. Настоящиe друзья / Друзья и любовники / Friends & Lovers (1999) DVDRip от vittrack

0 | 3

1.01 ГБ

В этой теме нет новых непрочитанных сообщений. Лучшие друзья / Друзья по несчастью / Best Friends / Xin hua lu fang (2014) WEB-DLRip

25 | 2

1.46 ГБ

В этой теме нет новых непрочитанных сообщений. Друзья на неделю / Isshuukan Friends / One Week Friends [TV] [01-12 из 12] (2014) HDTVRip 720p | LE-Production

91 | 18

2.85 ГБ

В этой теме нет новых непрочитанных сообщений. Друзья ангелов / Angel's Friends [01-66 из 104] (2009-2010) 12xDVD5 от New-Team | D | Лицензия

9 | 66

45.31 ГБ

В этой теме нет новых непрочитанных сообщений. Мои друзья Тигруля и Винни / My Friends Tigger & Pooh (2007-2010) 9xDVD5 от Youtracker | D | Лицензия

1 | 5

37.41 ГБ

В этой теме нет новых непрочитанных сообщений. Мои друзья Тигруля и Винни / My Friends Tigger & Pooh (2007-2010) 9xDVD9 от Youtracker | D | Лицензия

1 | 2

46.5 ГБ




Вы не можете начинать темы
Вы не можете отвечать на сообщения
Вы не можете редактировать свои сообщения
Вы не можете удалять свои сообщения
Вы не можете добавлять вложения

Перейти:  
Для Мосгорсуда, Роскомнадзора и рекламодателей: mosgorsud-torrent[собачка]yandex.ru
 Вход
ppkBB3cker v.2 © 2008-2014 @ PPK
[ Time : 0.074s | 15 Queries | GZIP : Off ]

Торрент трекер RUTOR.IN, Не можете зайти на rutor.org? Какой новый адрес рутор? Какое зеркало рутор? Не работает rutor.org и зеркала? Тогда наш торрент специально для вас. Rutor.in неофициальное зеркало rutor. В случае если у Вас заблокирован rutor или вдруг Вы не можете на него зайти, то Вы без труда сможете скачать бесплатно и без рекламы последние новинки кино, игр, сериалов и прочего у нас, на Rutor.in. Не нужно использовать прокси, чтобы зайти на рутор, достаточно воспользоваться нашим ресурсом. Все новые фильмы, игры, сериалы, книги и музыка за 2013 и 2014 годы через торрент бесплатно. Скачивайте фильмы в хорошем качестве, игры для пк, xbox, playstation без регистрации. У нас вы найдете новые Зарубежные сериалы и Русские сериалы 2013, 2014, 2015 годов. Оставайтесь с нами, качайте любимые фильмы, игры, сериалы, книги и музыку.