img image001 image001 image001 image001 image001 image001 image001 image001 image001 image001 image001 image001 image001 image001 image001

Planets Sun Sun Sun
Статистика раздачи
Автор: Снежана | Размер: 3.95 ГБ | Добавлен: 27 июл 2013
Раздают: 1    Качают: 10
Скачать торрент
Скачать торрент
Описание торрента

СообщениеДобавлено: 27 июл 2013 

#77

Год выпуска: 1997
Жанр: Мультсериал
Продолжительность: 05:15:55
Перевод: Профессиональный (полное дублирование) СТС
Режиссер: Рафаэль Росадо / Rafael Rosado; Оду Паден / Audu Paden; Фрэнк Сквиллейс / Frank Squillace; Дэвид Тига / David Teague; Скотт Вуд / Scott Wood и мн. др.
Описание: Кого можно встретить на ночных улицах Нью-Йорка? Запоздалые прохожие, влюблённые парочки, машины, отъезжающие от кафе и кинотеатров, последние пассажиры метро, — жизнь мегаполиса не останавливается ни на минуту. В тёмное время суток нужно быть особенно осторожными — город наводняют существа, каждое из которых пострашнее целой банды уличных хулиганов. Это привидения!
Среди них мало таких безобидных и милых созданий как Каспер! Призраки Нью-Йорка — могущественные монстры, которые вырастают до размеров небоскрёба, изменяют форму, просачиваются сквозь стены и люки городской канализации, и крушат всё вокруг, как Годзилла. Причём обычными средствами совладать с ними невозможно: ни танк, ни автомат, ни гранатомёт не возьмёт монстра.
Известный учёный, доктор Игон Спенглер, всю свою научную карьеру посвятил изучению привидений. Игон Спенглер сделал целый ряд важнейших научных открытий: он доказал, что каждый призрак распространяет эктоплазменное излучение, по которому его легко вычислить. На основе своей теории доктор Спенглер создал детекторы привидений, бластеры, и организовал первый отряд охотников за привидениями. Новый отряд охотников за привидениями сформирован из лучших студентов Игона Спенглера, а Игон остаётся их руководителем, отправляя ребят на очередное задание.
Файл:
как так - не знаю Видео
Идентификатор : 224 (0xE0)
Формат : MPEG Video
Версия формата : Version 2
Профиль формата : Main@Main
Параметр BVOP формата : Нет
Параметр матрицы формата : По умолчанию
Продолжительность : 40 мс.
Вид битрейта : Переменный
Битрейт : 9000 Кбит/сек
Ширина : 720 пикс.
Высота : 576 пикс.
Соотношение сторон : 4:3
Частота кадров : 25,000 кадр/сек
Стандарт вещания : PAL
Цветовое пространство : YUV
Подвыборка цветности : 4:2:0
Битовая глубина : 8 бит
Тип развёртки : Прогрессивная
Порядок развёртки : Верхнее поле первое
Метод сжатия : С потерями
Бит/(Пиксели*Кадры) : 0.868
Размер потока : 43,9 Кбайт (37%)
Аудио
Идентификатор : 189 (0xBD)-128 (0x80)
Формат : AC-3
Формат/Информация : Audio Coding 3
Расширение режима : CM (complete main)
Режим смешивания : DVD-Video
Продолжительность : 18 м.
Вид битрейта : Постоянный
Битрейт : 448 Кбит/сек
Каналы : 2 канала
Расположение каналов : Front: L R
Частота : 48,0 КГц
Битовая глубина : 16 бит
Метод сжатия : С потерями
Задержка видео : 7 мс.
Размер потока : 60,3 Мбайт (6%)


Сэмпл 1Сэмпл 2
Качество: DVD5
Формат: DVD Video
Видео кодек: MPEG2
Аудио кодек: AC3
Видео: PAL 4:3 (768x576) CBR ммм... (чудеса ...ааа...)
Аудио: Русский DD 2.0 (448Kbps)
Раздача от группы:

http://multi-up.com/514652

ЦитатаКто-то писал:
[color=RED ]Внимание! Это не лицензия! В лицухе не выходило![/color]



   Похожие торренты   Торрент   Размер 
В этой теме нет новых непрочитанных сообщений. Охотники за привидениями / Extreme Ghostbusters [01-40] (1997) TVRip

34 | 11

6.64 ГБ

В этой теме нет новых непрочитанных сообщений. OST - Охотники за привидениями / Ghostbusters (2016) MP3

31 | 6

120.54 МБ

В этой теме нет новых непрочитанных сообщений. OST - Охотники за привидениями / Ghostbusters (2016) MP3

131 | 7

107.21 МБ

В этой теме нет новых непрочитанных сообщений. OST - Охотники за привидениями / Ghostbusters (2016) FLAC

4 | 0

255.08 МБ

В этой теме нет новых непрочитанных сообщений. Охотники за привидениями / Ghostbusters (2016) CAMRip | L

5747 | 843

2.05 ГБ

В этой теме нет новых непрочитанных сообщений. Охотники за привидениями / Ghostbusters (1984) BDRip от RP4 CHG

8 | 3

701.29 МБ

В этой теме нет новых непрочитанных сообщений. Охотники за привидениями / Ghostbusters (2016) CAMRip | D

3308 | 491

1.5 ГБ




Вы не можете начинать темы
Вы не можете отвечать на сообщения
Вы не можете редактировать свои сообщения
Вы не можете удалять свои сообщения
Вы не можете добавлять вложения

Перейти:  
Для Мосгорсуда, Роскомнадзора и рекламодателей: mosgorsud-torrent[собачка]yandex.ru
 Вход
ppkBB3cker v.2 © 2008-2014 @ PPK
[ Time : 0.044s | 15 Queries | GZIP : Off ]

Торрент трекер RUTOR.IN, Не можете зайти на rutor.org? Какой новый адрес рутор? Какое зеркало рутор? Не работает rutor.org и зеркала? Тогда наш торрент специально для вас. Rutor.in неофициальное зеркало rutor. В случае если у Вас заблокирован rutor или вдруг Вы не можете на него зайти, то Вы без труда сможете скачать бесплатно и без рекламы последние новинки кино, игр, сериалов и прочего у нас, на Rutor.in. Не нужно использовать прокси, чтобы зайти на рутор, достаточно воспользоваться нашим ресурсом. Все новые фильмы, игры, сериалы, книги и музыка за 2013 и 2014 годы через торрент бесплатно. Скачивайте фильмы в хорошем качестве, игры для пк, xbox, playstation без регистрации. У нас вы найдете новые Зарубежные сериалы и Русские сериалы 2013, 2014, 2015 годов. Оставайтесь с нами, качайте любимые фильмы, игры, сериалы, книги и музыку.