img image001 image001 image001 image001 image001 image001 image001 image001 image001 image001 image001 image001 image001 image001 image001

Planets Sun Sun Sun
Статистика раздачи
Автор: Снежана | Размер: 4.34 ГБ | Добавлен: 27 июл 2013
Раздают: 2    Качают: 3
Скачать торрент
Скачать торрент
Описание торрента

СообщениеДобавлено: 27 июл 2013 

#77

Год выпуска : 2000
Страна: США
Жанр: триллер, приключения, семейный, мультфильм
Продолжительность: 01:21:59
Перевод: Профессиональный (многоголосый,закадровый)+ Дубляж +Оригинал
Русские субтитры: Есть+английские
Режиссёр: Эрик Лейтон, Ральф Зондаг / Eric Leighton, Ralph Zondag
В ролях: : Озвучивали - Д.Б. Суини,Элфри Вудард,Осси Дэвис,Макс Каселла,Хайден Панеттьери,Сэмюэл Э. Райт,Джулианна Маргулис,Питер Сирагуса,Джоан Плаурайт,Делла Риз Русский дубляж: Сергей Дьячков,Игорь Шибанов,Алексей Федотов,Игорь Добряков,Александра Кожевникова
Описание: : Путешествие трехтонного игуанодонта по имени Аладар, который был разбужен из своего яйца племенем лемуров и случайно воссоединившегося с себе подобными. Из-за огненных метеоритов, разрушающих ландшафт и нехватки воды в исчезающих водоемах динозавры оказались в гонке за выживание, где главным их противником стало время.
Аладар наживает себе врага в лице бессердечного вожака Крона, когда заступается за безащитных животных в несущемся сломя голову стаде. Лицом к лицу с такими опасностями, как внезапные оползни и атакующие тиранозавры, Аладар и его новые друзья должны преодолеть невероятные трудности до того, как обретут новую родину в прекрасной долине…
Доп. информация: : Сделано из DVD9 релиза, за который большое спасибо — Phingolfin!!! Сжималось связкой DVDRemake Pro, DVD Rebuilder + CCE/Procoder в 5 проходов на 3%, титры на 90%. Удалены все допы и русский ДТС, меню исправлено, кнопки на допы и русккий ДТС отключены и стёрты... Никаких допов нет! Рип от саня1708

Файл:
Общее
Полное имя : G: utorДинозаврVIDEO_TSVTS_01_1.VOB
Формат : MPEG-PS
Размер файла : 1024 Мбайт
Продолжительность : 18 м.
Общий поток : 7842 Кбит/сек

Видео
Идентификатор : 224 (0xE0)
Формат : MPEG Video
Версия формата : Version 2
Профиль формата : Main@Main
Параметр BVOP формата : Да
Параметр матрицы формата : По умолчанию
Продолжительность : 18 м.
Вид битрейта : Переменный
Битрейт : 6406 Кбит/сек
Номинальный битрейт : 6780 Кбит/сек
Ширина : 720 пикс.
Высота : 480 пикс.
Соотношение сторон : 16:9
Частота кадров : 29,970 кадр/сек
Стандарт вещания : NTSC
Цветовое пространство : YUV
Подвыборка цветности : 4:2:0
Битовая глубина : 8 бит
Метод сжатия : С потерями
Бит/(Пиксели*Кадры) : 0.619
Размер потока : 836 Мбайт (82%)

Аудио #1
Идентификатор : 189 (0xBD)-129 (0x81)
Формат : AC-3
Формат/Информация : Audio Coding 3
Расширение режима : CM (complete main)
Режим смешивания : DVD-Video
Продолжительность : 18 м.
Вид битрейта : Постоянный
Битрейт : 448 Кбит/сек
Каналы : 6 каналов
Расположение каналов : Front: L C R, Side: L R, LFE
Частота : 48,0 КГц
Битовая глубина : 16 бит
Метод сжатия : С потерями
Размер потока : 58,5 Мбайт (6%)

Аудио #2
Идентификатор : 189 (0xBD)-130 (0x82)
Формат : AC-3
Формат/Информация : Audio Coding 3
Расширение режима : CM (complete main)
Режим смешивания : DVD-Video
Продолжительность : 18 м.
Вид битрейта : Постоянный
Битрейт : 384 Кбит/сек
Каналы : 6 каналов
Расположение каналов : Front: L C R, Side: L R, LFE
Частота : 48,0 КГц
Битовая глубина : 16 бит
Метод сжатия : С потерями
Размер потока : 50,1 Мбайт (5%)

Аудио #3
Идентификатор : 189 (0xBD)-131 (0x83)
Формат : AC-3
Формат/Информация : Audio Coding 3
Расширение режима : CM (complete main)
Режим смешивания : DVD-Video
Продолжительность : 18 м.
Вид битрейта : Постоянный
Битрейт : 448 Кбит/сек
Каналы : 2 канала
Расположение каналов : Front: L R
Частота : 48,0 КГц
Битовая глубина : 16 бит
Метод сжатия : С потерями
Размер потока : 58,5 Мбайт (6%)

Качество: : DVD5 (сжатый)
Формат: : DVD Video
Видео кодек: : MPEG2
Аудио кодек: : AC3
Видео: : NTSC 16:9 (720x480) VBR, Auto Letterboxed
Аудио: : Russian многоголоска (Dolby AC3, 6 ch) 384Kbps / Russian дубляж (Dolby AC3, 2 ch) 448Kbps / English (Dolby AC3, 6 ch) 448Kbps
Сэмпл multiup, ifolder




   Похожие торренты   Торрент   Размер 
В этой теме нет новых непрочитанных сообщений. Динозавр / Dinosaur (2000) HDRip | D

162 | 20

747.17 МБ

В этой теме нет новых непрочитанных сообщений. Динозавр / Dinosaur (2000) BDRip-AVC | D, P2

70 | 16

1.46 ГБ

В этой теме нет новых непрочитанных сообщений. Динозавр / Dinosaur (2000) Blu-Ray 1080p | D

89 | 5

16.94 ГБ

В этой теме нет новых непрочитанных сообщений. Динозавр / Dinosaur (2000) BDRip от Generalfilm | КПК | D

682 | 9

280.68 МБ

В этой теме нет новых непрочитанных сообщений. Динозавр / Dinosaur (2000) BDRip 720 от SuperMin

228 | 27

2.15 ГБ

В этой теме нет новых непрочитанных сообщений. Динозавр / Dinosaur (2000) BDRip 1080p

484 | 25

4.37 ГБ

В этой теме нет новых непрочитанных сообщений. Динозавр / Dinosaur (2000) BDRip 720p от PskovLine

4 | 3

4.22 ГБ




Вы не можете начинать темы
Вы не можете отвечать на сообщения
Вы не можете редактировать свои сообщения
Вы не можете удалять свои сообщения
Вы не можете добавлять вложения

Перейти:  
Для Мосгорсуда, Роскомнадзора и рекламодателей: mosgorsud-torrent[собачка]yandex.ru
 Вход
ppkBB3cker v.2 © 2008-2014 @ PPK
[ Time : 0.044s | 14 Queries | GZIP : Off ]

Торрент трекер RUTOR.IN, Не можете зайти на rutor.org? Какой новый адрес рутор? Какое зеркало рутор? Не работает rutor.org и зеркала? Тогда наш торрент специально для вас. Rutor.in неофициальное зеркало rutor. В случае если у Вас заблокирован rutor или вдруг Вы не можете на него зайти, то Вы без труда сможете скачать бесплатно и без рекламы последние новинки кино, игр, сериалов и прочего у нас, на Rutor.in. Не нужно использовать прокси, чтобы зайти на рутор, достаточно воспользоваться нашим ресурсом. Все новые фильмы, игры, сериалы, книги и музыка за 2013 и 2014 годы через торрент бесплатно. Скачивайте фильмы в хорошем качестве, игры для пк, xbox, playstation без регистрации. У нас вы найдете новые Зарубежные сериалы и Русские сериалы 2013, 2014, 2015 годов. Оставайтесь с нами, качайте любимые фильмы, игры, сериалы, книги и музыку.