img image001 image001 image001 image001 image001 image001 image001 image001 image001 image001 image001 image001 image001 image001 image001

Planets Sun Sun Sun
Статистика раздачи
Автор: Снежана | Размер: 4.37 ГБ | Добавлен: 27 июл 2013
Раздают: 9    Качают: 3
Скачать торрент
Скачать торрент
Описание торрента

СообщениеДобавлено: 27 июл 2013 

#77

Информация о мультфильме
Оригинальное название: Элька. Мы спасем Антарктиду!
Год выпуска: 2007
Жанр: Полнометражный мультфильм
Режиссер: Владимир Саков
Композитор: Иван Бурлачко
Роли озвучивали: А.Пожаров, А.Булдаков, А.Филиппенко, Ю.Гальцев, О.Шорохова, Е. Лебенбаум, А.Колган, Лариса Брохман, А. Симоновский, Д. Белоусова, Д.Филимонов, Е.Габец, Л.Дребнёва

Сюжет мультфильма: Эта история происходит накануне Нового года. Белый медвежонок Элька обнаруживает возле своего дома Волшебный Тоннель Дружбы, который соединяет Северный и Южный полюс.

Благодаря этому Тоннелю у Эльки появляется подруга — пингвиненок Таша. Она рассказывает Эльке, что в Антарктиде, откуда она родом, происходит нечто ужасное — злые люди с помощью порабощенных пингвинов воруют снег, и его уже почти не осталось. Такая же опасность грозит и Арктике. Элька и Таша немедленно отправляются спасать Антарктиду.

На Южном полюсе у отважных медвежонка и пингвиненка появляются верные друзья — меланхоличная пессимистка Чайка и компьютерный гений, умеющий найти доступ в Интернет даже среди снежных равнин — тюлень Мартик. Эту компанию ожидают самые невероятные приключения. Им предстоит выяснить, зачем злодеи похищают снег и откуда взялся ужасный робот Макси Маус. А в Ледяном Дворце друзья встретят Кая и Герду, которые совсем не похожи на персонажей сказки Андерсена…

Выпущено: Россия / ЗАО "Элизиум"
Продолжительность: 01:25:15
Язык: Оригинальный

Файл:
Видео
Идентификатор : 224 (0xE0)
Формат : MPEG Video
Версия формата : Version 2
Профиль формата : Main@Main
Параметр BVOP формата : Да
Параметр матрицы формата : По умолчанию
Продолжительность : 20 м.
Вид битрейта : Переменный
Битрейт : 6694 Кбит/сек
Номинальный битрейт : 8000 Кбит/сек
Ширина : 720 пикс.
Высота : 576 пикс.
Соотношение сторон : 16:9
Частота кадров : 25,000 кадр/сек
Стандарт вещания : PAL
Цветовое пространство : YUV
Подвыборка цветности : 4:2:0
Битовая глубина : 8 бит
Тип развёртки : Чересстрочная
Порядок развёртки : Верхнее поле первое
Метод сжатия : С потерями
Бит/(Пиксели*Кадры) : 0.646
Размер потока : 975 Мбайт (95%)

Аудио
Идентификатор : 189 (0xBD)-128 (0x80)
Формат : AC-3
Формат/Информация : Audio Coding 3
Расширение режима : CM (complete main)
Режим смешивания : DVD-Video
Продолжительность : 20 м.
Вид битрейта : Постоянный
Битрейт : 192 Кбит/сек
Каналы : 2 канала
Расположение каналов : Front: L R
Частота : 48,0 КГц
Битовая глубина : 16 бит
Метод сжатия : С потерями
Размер потока : 28,0 Мбайт (3%)

Качество: DVD
Формат: DVD Video
Видео: MPEG2 PAL 16:9 (720x576) VBR
Аудио: Русский (Dolby AC3, 2 ch)



   Похожие торренты   Торрент   Размер 
В этой теме нет новых непрочитанных сообщений. Madonna - The Video Collection 2000-2006 (2006) DVD5

12 | 5

4.36 ГБ

В этой теме нет новых непрочитанных сообщений. Час пик (2006) DVD5

5 | 4

4.11 ГБ

В этой теме нет новых непрочитанных сообщений. Хроника «Ада» (2006) DVD5

71 | 21

5.84 ГБ

В этой теме нет новых непрочитанных сообщений. Питер FM (2006) DVD5

29 | 9

4.37 ГБ

В этой теме нет новых непрочитанных сообщений. Сволочи (2006) DVD5

25 | 38

4.11 ГБ

В этой теме нет новых непрочитанных сообщений. Громовы [01-12 из 12] (2006) DVD5

129 | 25

4.22 ГБ

В этой теме нет новых непрочитанных сообщений. Она - мужчина / She's the Man (2006) DVD5

21 | 2

4.36 ГБ




Вы не можете начинать темы
Вы не можете отвечать на сообщения
Вы не можете редактировать свои сообщения
Вы не можете удалять свои сообщения
Вы не можете добавлять вложения

Перейти:  
Для Мосгорсуда, Роскомнадзора и рекламодателей: mosgorsud-torrent[собачка]yandex.ru
 Вход
ppkBB3cker v.2 © 2008-2014 @ PPK
[ Time : 0.543s | 15 Queries | GZIP : Off ]

Торрент трекер RUTOR.IN, Не можете зайти на rutor.org? Какой новый адрес рутор? Какое зеркало рутор? Не работает rutor.org и зеркала? Тогда наш торрент специально для вас. Rutor.in неофициальное зеркало rutor. В случае если у Вас заблокирован rutor или вдруг Вы не можете на него зайти, то Вы без труда сможете скачать бесплатно и без рекламы последние новинки кино, игр, сериалов и прочего у нас, на Rutor.in. Не нужно использовать прокси, чтобы зайти на рутор, достаточно воспользоваться нашим ресурсом. Все новые фильмы, игры, сериалы, книги и музыка за 2013 и 2014 годы через торрент бесплатно. Скачивайте фильмы в хорошем качестве, игры для пк, xbox, playstation без регистрации. У нас вы найдете новые Зарубежные сериалы и Русские сериалы 2013, 2014, 2015 годов. Оставайтесь с нами, качайте любимые фильмы, игры, сериалы, книги и музыку.
cron