img image001 image001 image001 image001 image001 image001 image001 image001 image001 image001 image001 image001 image001 image001 image001 image001

Planets Sun Sun Sun
Статистика раздачи
Автор: Снежана | Размер: 4.38 ГБ | Добавлен: 27 июл 2013
Раздают: 0    Качают: 3
Скачать торрент
Скачать торрент
Описание торрента

СообщениеДобавлено: 27 июл 2013 

#77

Страна: США
Жанр: мультфильм, фантастика, комедия, приключения
Год выпуска: 2011
Продолжительность: 01:24:27
Перевод: Профессиональный (дублированный) [Лицензия]
Cубтитры: русские, украинские, английские etc.
Режиссер: Саймон Уэллс / Simon Wells
Роли озвучивали: Сет Грин, Дэн Фоглер, Джоан Кьюсак, Элизабет Арнуа, Мелинда Стерлинг, Кевин Кахун, Том Эверетт Скотт, Жаки Барнбрук, Мэттью Хенерсон, Адам Дженнингс
Описание: Есть мерзкую брокколи, выносить мусор, рано ложиться спать — кому вообще нужны мамы, заставляющие это делать? Так думал Майло, пока не обнаружил, что его маму похитили марсиане. Тут-то и оказалось, что ему предстоит отправиться на другую планету, чтобы найти маму и вернуть ее домой.
Доп. материалы: Нет
Меню: частично анимированное, озвученное

Тип релиза: DVD5 (Сжатый) Видео не сжато!
Контейнер: DVD-VideoВидео: PAL 16:9 (720x576) MPEG Video, 25 кадр/сек
Аудио 1: Русский (Dolby AC3, 6 ch) 384 Кбит/сек, 48,0 КГц
Аудио 2: Украинский (Dolby AC3, 6 ch) 384 Кбит/сек, 48,0 КГц
Аудио 3: Английский (Dolby AC3, 6 ch) 384 Кбит/сек, 48,0 КГц
Релиз сделан из DVD9 [исх. лицензия R5 - 5.57 GB GB, PAL 16:9].
Обработано в DVDRemake Pro, Photoshop.
Основное видео не сжато. Несильно сжаты (где-то на 35%) финальные титры с помощью Rebuilder+CCE в 7 проходов.
Удалено: реклама, заставки, дополнительные материалы и турецкая дорожка. Сохранено русское и английское меню.
Лишние кнопки затерты и закрыты. Меню соответственно подкорректировано.
Работоспособность проверена на KMPlayer , PowerDVD и бытовом JVC
Записано программой ImgBurn на DVD+RW болванку
Релиз by j1o2k3e4r5

Видео
Идентификатор : 224 (0xE0)
Формат : MPEG Video
Версия формата : Version 2
Профиль формата : Main@Main
Параметр BVOP формата : Да
Параметр матрицы формата : По умолчанию
Продолжительность : 19 м.
Вид битрейта : Переменный
Битрейт : 6001 Кбит/сек
Номинальный битрейт : 9800 Кбит/сек
Ширина : 720 пикс.
Высота : 576 пикс.
Соотношение сторон : 16:9
Частота кадров : 25,000 кадр/сек
Стандарт вещания : PAL
Цветовое пространство : YUV
Подвыборка цветности : 4:2:0
Битовая глубина : 8 бит
Тип развёртки : Чересстрочная
Порядок развёртки : Верхнее поле первое
Метод сжатия : С потерями
Бит/(Пиксели*Кадры) : 0.579
Размер потока : 842 Мбайт (82%)

Аудио #1
Идентификатор : 189 (0xBD)-128 (0x80)
Формат : AC-3
Формат/Информация : Audio Coding 3
Расширение режима : CM (complete main)
Режим смешивания : DVD-Video
Продолжительность : 19 м.
Вид битрейта : Постоянный
Битрейт : 384 Кбит/сек
Каналы : 6 каналов
Расположение каналов : Front: L C R, Side: L R, LFE
Частота : 48,0 КГц
Битовая глубина : 16 бит
Метод сжатия : С потерями
Размер потока : 53,9 Мбайт (5%)

Аудио #2
Идентификатор : 189 (0xBD)-129 (0x81)
Формат : AC-3
Формат/Информация : Audio Coding 3
Расширение режима : CM (complete main)
Режим смешивания : DVD-Video
Продолжительность : 19 м.
Вид битрейта : Постоянный
Битрейт : 384 Кбит/сек
Каналы : 6 каналов
Расположение каналов : Front: L C R, Side: L R, LFE
Частота : 48,0 КГц
Битовая глубина : 16 бит
Метод сжатия : С потерями
Размер потока : 53,9 Мбайт (5%)

Аудио #3
Идентификатор : 189 (0xBD)-130 (0x82)
Формат : AC-3
Формат/Информация : Audio Coding 3
Расширение режима : CM (complete main)
Режим смешивания : DVD-Video
Продолжительность : 19 м.
Вид битрейта : Постоянный
Битрейт : 384 Кбит/сек
Каналы : 6 каналов
Расположение каналов : Front: L C R, Side: L R, LFE
Частота : 48,0 КГц
Битовая глубина : 16 бит
Метод сжатия : С потерями
Размер потока : 53,9 Мбайт (5%)

Текст #1
Идентификатор : 189 (0xBD)-35 (0x23)
Формат : RLE
Формат/Информация : Run-length encoding
Режим смешивания : DVD-Video

Текст #2
Идентификатор : 189 (0xBD)-36 (0x24)
Формат : RLE
Формат/Информация : Run-length encoding
Режим смешивания : DVD-Video

Текст #3
Идентификатор : 189 (0xBD)-37 (0x25)
Формат : RLE
Формат/Информация : Run-length encoding
Режим смешивания : DVD-Video

Текст #4
Идентификатор : 189 (0xBD)-38 (0x26)
Формат : RLE
Формат/Информация : Run-length encoding
Режим смешивания : DVD-Video

Текст #5
Идентификатор : 189 (0xBD)-39 (0x27)
Формат : RLE
Формат/Информация : Run-length encoding
Режим смешивания : DVD-Video

Текст #6
Идентификатор : 189 (0xBD)-40 (0x28)
Формат : RLE
Формат/Информация : Run-length encoding
Режим смешивания : DVD-Video

Текст #7
Идентификатор : 189 (0xBD)-41 (0x29)
Формат : RLE
Формат/Информация : Run-length encoding
Режим смешивания : DVD-Video

Текст #8
Идентификатор : 189 (0xBD)-42 (0x2A)
Формат : RLE
Формат/Информация : Run-length encoding
Режим смешивания : DVD-Video

Текст #9
Идентификатор : 189 (0xBD)-46 (0x2E)
Формат : RLE
Формат/Информация : Run-length encoding
Режим смешивания : DVD-Video

Текст #10
Идентификатор : 189 (0xBD)-47 (0x2F)
Формат : RLE
Формат/Информация : Run-length encoding
Режим смешивания : DVD-Video

Текст #11
Идентификатор : 189 (0xBD)-48 (0x30)
Формат : RLE
Формат/Информация : Run-length encoding
Режим смешивания : DVD-Video

Текст #12
Идентификатор : 189 (0xBD)-49 (0x31)
Формат : RLE
Формат/Информация : Run-length encoding
Режим смешивания : DVD-Video

Текст #13
Идентификатор : 189 (0xBD)-50 (0x32)
Формат : RLE
Формат/Информация : Run-length encoding
Режим смешивания : DVD-Video

Текст #14
Идентификатор : 189 (0xBD)-51 (0x33)
Формат : RLE
Формат/Информация : Run-length encoding
Режим смешивания : DVD-Video

Текст #15
Идентификатор : 189 (0xBD)-52 (0x34)
Формат : RLE
Формат/Информация : Run-length encoding
Режим смешивания : DVD-Video

Текст #16
Идентификатор : 189 (0xBD)-53 (0x35)
Формат : RLE
Формат/Информация : Run-length encoding
Режим смешивания : DVD-Video

Текст #17
Идентификатор : 189 (0xBD)-54 (0x36)
Формат : RLE
Формат/Информация : Run-length encoding
Режим смешивания : DVD-Video

Текст #18
Идентификатор : 189 (0xBD)-55 (0x37)
Формат : RLE
Формат/Информация : Run-length encoding
Режим смешивания : DVD-Video

Текст #19
Идентификатор : 189 (0xBD)-56 (0x38)
Формат : RLE
Формат/Информация : Run-length encoding
Режим смешивания : DVD-Video


Сэмпл



   Похожие торренты   Торрент   Размер 
В этой теме нет новых непрочитанных сообщений. Тайна красной планеты / Mars Needs Moms (2011) HDRip-AVC | D

65 | 14

745.46 МБ

В этой теме нет новых непрочитанных сообщений. Тайна красной планеты / Mars Needs Moms (2011) BDRip 720 от SuperMin

285 | 16

2.7 ГБ

В этой теме нет новых непрочитанных сообщений. Тайна красной планеты / Mars Needs Moms (2011) BDRip-AVC от HELLYWOOD

11 | 3

2.18 ГБ

В этой теме нет новых непрочитанных сообщений. Тайна красной планеты / Mars Needs Moms (2011) BDRip 1080p от HELLYWOOD

30 | 3

5.15 ГБ

В этой теме нет новых непрочитанных сообщений. Тайна третьей планеты / Тайна третьей планеты (Роман Качанов) [1981, мультфильм, фантастика, фэнтези, приключения, семейный, HDDVDRip 720p]

2 | 0

1.57 ГБ

В этой теме нет новых непрочитанных сообщений. Новости с планеты Марс / News from Planet Mars / Des nouvelles de la planète Mars (2016) WEB-DLRip от Scarabey | iTunes

194 | 54

1.43 ГБ

В этой теме нет новых непрочитанных сообщений. Новости с планеты Марс / Des nouvelles de la planète Mars (2016) WEB-DLRip | iTunes

1566 | 346

1.48 ГБ




Вы не можете начинать темы
Вы не можете отвечать на сообщения
Вы не можете редактировать свои сообщения
Вы не можете удалять свои сообщения
Вы не можете добавлять вложения

Перейти:  
 Вход
ppkBB3cker v.2 © 2008-2014 @ PPK
[ Time : 0.018s | 17 Queries | GZIP : Off ]

cron