img image001 image001 image001 image001 image001 image001 image001 image001 image001 image001 image001 image001 image001 image001 image001

Planets Sun Sun Sun
Статистика раздачи
Автор: Снежана | Размер: 4.06 ГБ | Добавлен: 27 июл 2013
Раздают: 13    Качают: 10
Скачать торрент
Скачать торрент
Описание торрента

СообщениеДобавлено: 27 июл 2013 

#77

Год выпуска DVD: 2007
Страна: СССР
Жанр: Мультфильмы
Продолжительность: 01:22:49
Перевод: Не требуется
Режиссер: Г. Тищенко, Р. Зельма, А. Зябликова, Н. Лернер и др.
В ролях: А. Баранцев, В. Абдулов, Р. Мухаметшина, И. Верник, Л. Куравлев, Е. Валюшкина, Ю. Пузырев, Г. Вицин, Л. Королева и др.

О фильме: 1. “Почему куры денег не клюют?”, 1990 г., 8 мин. Реж. Геннадий Тищенко
Петух прихвастнул семейным достатком перед котом, гусем и псом, сказав, что у него куры денег не клюют. Приятели пожелали убедиться в этом, и отправились к свинье, чтобы попросить у нее денег и проверить… Так может куры денег не клюют, потому что у них их просто нет?!…

2. “Курица”, 1991 г., 9 мин. Реж. Натан Лернер
По мотивам одноименной сказки Ф. Кривина. Лето. Жаркая пора, повсюду засуха. В этот непростой момент петух активно ухаживает за молоденькой курочкой. Курица вроде и не против, но у нее на слуху постоянно вертятся слова окружающих, что им нужен дождь. Не зная, что это такое, она отказывает петуху, мечтая о дожде… Разочаровавшись в итоге, она выходит таки замуж за петуха: “А то, что ноги кривые, что ж… – Я все равно счастлива!”, но когда она слышит звук дождя, то все равно мечтает о несбывшемся…

3. “На суше и на море”, 1988 г., 2 мин. Реж. Р. Зельма
Музыкальная зарисовка о неверном муже и верной жене.

4. “Это совсем не про это”, 1984 г., 3 мин. Реж. С. Иванов, А. Федулов
Про корову, которая из-за отравления воздуха и воды вместо молока стала давать… бензин. На музыку Ж.Рамо.

5. “Миссия пришельцев”, 1989 г., 9 мин. Реж. Г. Тищенко
Инопланетяне, изучая поведение человечества, решили улучшить жизнь простого смертного, модернизировав его мозг… Для опытов они взяли не очень умного любителя выпить…. И вот что из этого вышло…

6. “Туда и обратно”, 1985 г., 2 мин. Реж. Александр Татарский
Эволюция: из обезъяны в человека, а потом обратно – из-за пристрастия к “зеленому змию” ))

7. “Пугало”, 1990 г., 10 мин. Реж. Р Зельма
О несчастной любви Пугала к корыстной изменщице Зайчихе.

8-9. “В стране Бобберов”:
— История первая: Гомункулус, 1991 г., 17 мин. Реж. А. Зябликова
История о приключениях смешных и трогательных существ – бобберов. В стране бобберов появляется всепожирающее на своем пути страшное чудовище. Профессору-алхимику Бобберману удается вырастить в колбе гомункулуса Яшу, героя, вступившего в смертельную схватку с чудовищем.
— История вторая: Обед с господином Грызли, 1993 г., 17 мин., Реж. А. Зябликова
Продолжение историй из жизни бобберов. Жители страны бобберов устраивают торжества в честь гомункулуса Яши, победителя чудовища. Однако, Яша оказывается не настоящим героем. Чудовище съедает его вместе с куском праздничного торта.

10. “Брак по расчету”, 1988 Г., 6 мин. Реж. Р. Зельма
Любовь и брак. Герой фильма, испугавшись брачных уз, так и не смог найти своего счастья…

Доп. информация: Лицензионное (упрощенное) издание "Компания "МАГНАТ"", производство Т/О "Экран" и ТПО "Союзтелефильм". Детям до 12 лет просмотр разрешен только в сопровождении родителей!
Файл:
Видео
Идентификатор : 224 (0xE0)
Формат : MPEG Video
Версия формата : Version 2
Профиль формата : Main@Main
Параметр BVOP формата : Да
Параметр матрицы формата : По умолчанию
Параметры GOP формата : M=3, N=12
Продолжительность : 20 м.
Вид битрейта : Переменный
Битрейт : 6521 Кбит/сек
Номинальный битрейт : 9300 Кбит/сек
Ширина : 720 пикс.
Высота : 576 пикс.
Соотношение сторон : 4:3
Частота кадров : 25,000 кадр/сек
Стандарт вещания : PAL
Цветовое пространство : YUV
Подвыборка цветности : 4:2:0
Битовая глубина : 8 бит
Тип развёртки : Чересстрочная
Порядок развёртки : Верхнее поле первое
Метод сжатия : С потерями
Бит/(Пиксели*Кадры) : 0.629
Размер потока : 943 Мбайт (94%)

Аудио
Идентификатор : 189 (0xBD)-128 (0x80)
Формат : AC-3
Формат/Информация : Audio Coding 3
Расширение режима : CM (complete main)
Режим смешивания : DVD-Video
Продолжительность : 20 м.
Вид битрейта : Постоянный
Битрейт : 256 Кбит/сек
Каналы : 2 канала
Расположение каналов : Front: L R
Частота : 48,0 КГц
Битовая глубина : 16 бит
Метод сжатия : С потерями
Задержка видео : -80 мс.
Размер потока : 37,0 Мбайт (4%)

Формат: DVD Video
Качество: DVD5
Видео: PAL 4:3 (720x576) VBR
Аудио: Russian (Dolby AC3, 2 ch, 256Kbps)




   Похожие торренты   Торрент   Размер 
В этой теме нет новых непрочитанных сообщений. Недетские игры / Come Out and Play (2012) DVD5 от New-Team | P | Лицензия

15 | 8

3.63 ГБ

В этой теме нет новых непрочитанных сообщений. Мульт-Салют-21. Классика Нашей Мультипликации (Рисованные Мультфильмы) (1946-1981) DVD5

11 | 3

4.37 ГБ

В этой теме нет новых непрочитанных сообщений. Мульт-Салют-9. Классика Нашей Мультипликации (Рисованные Мультфильмы) (1946-1981) DVD5

0 | 4

4.37 ГБ

В этой теме нет новых непрочитанных сообщений. Мульт-Салют-3. Классика Нашей Мультипликации (Рисованные Мультфильмы) (1946-1981) DVD5

6 | 2

4.26 ГБ

В этой теме нет новых непрочитанных сообщений. Мульт-Салют-7. Классика Нашей Мультипликации (Рисованные Мультфильмы) (1946-1981) DVD5

56 | 8

4.1 ГБ

В этой теме нет новых непрочитанных сообщений. Мульт-Салют-6. Классика Нашей Мультипликации (Рисованные Мультфильмы) (1946-1981) DVD5

12 | 3

4.37 ГБ

В этой теме нет новых непрочитанных сообщений. Мульт-Салют-5. Классика Нашей Мультипликации (Рисованные Мультфильмы) (1946-1981) DVD5

9 | 5

4.37 ГБ




Вы не можете начинать темы
Вы не можете отвечать на сообщения
Вы не можете редактировать свои сообщения
Вы не можете удалять свои сообщения
Вы не можете добавлять вложения

Перейти:  
Для Мосгорсуда, Роскомнадзора и рекламодателей: mosgorsud-torrent[собачка]yandex.ru
 Вход
ppkBB3cker v.2 © 2008-2014 @ PPK
[ Time : 0.036s | 15 Queries | GZIP : Off ]

Торрент трекер RUTOR.IN, Не можете зайти на rutor.org? Какой новый адрес рутор? Какое зеркало рутор? Не работает rutor.org и зеркала? Тогда наш торрент специально для вас. Rutor.in неофициальное зеркало rutor. В случае если у Вас заблокирован rutor или вдруг Вы не можете на него зайти, то Вы без труда сможете скачать бесплатно и без рекламы последние новинки кино, игр, сериалов и прочего у нас, на Rutor.in. Не нужно использовать прокси, чтобы зайти на рутор, достаточно воспользоваться нашим ресурсом. Все новые фильмы, игры, сериалы, книги и музыка за 2013 и 2014 годы через торрент бесплатно. Скачивайте фильмы в хорошем качестве, игры для пк, xbox, playstation без регистрации. У нас вы найдете новые Зарубежные сериалы и Русские сериалы 2013, 2014, 2015 годов. Оставайтесь с нами, качайте любимые фильмы, игры, сериалы, книги и музыку.
cron