img image001 image001 image001 image001 image001 image001 image001 image001 image001 image001 image001 image001 image001 image001 image001

Planets Sun Sun Sun
Статистика раздачи
Автор: Снежана | Размер: 747.04 МБ | Добавлен: 27 июл 2013
Раздают: 428    Качают: 11
Скачать торрент
Скачать торрент
Описание торрента

СообщениеДобавлено: 27 июл 2013 

#77

Информация о фильме
Название: Синдбад: Легенда семи морей
Оригинальное название: Sinbad: Legend of the Seven Seas
Год выхода: 2003
Жанр: мультфильм, фэнтези, приключения, семейный
Режиссер: Патрик Гилмор /Patrick Gilmore/, Тим Джонсон /Tim Johnson/
Роли озвучивали: Брэд Питт /Brad Pitt/, Кэтрин Зета-Джонс /Catherine Zeta-Jones/, Мишель Пфайффер /Michelle Pfeiffer/, Джозеф Файнc /Joseph Fiennes/, Деннис Хейсбёрт /Dennis Haysbert/, Тимоти Уэст /Timothy West/, Адриано Джаннини /Adriano Giannini/, Раман Хуи /Raman Hui/, Чунг Чан /Chung Chan/, Джим Каммингс /Jim Cummings/, Конрад Вернон /Conrad Vernon/, Эндрю Бирч /Andrew Birch/, Крис Миллер /Chris Miller/

О фильме:
Мультфильм рассказывает об одном из многочисленных приключений известного аравийского моряка Синдбада. Приключение начинается тогда, когда Эрис, богиня Хаоса, крадет Книгу Мира, подставив тем самым Синдбада и сделав из него преступника.

Намеревающийся доказать свою невиновность, а также спасти жизнь своего лучшего друга Протеуса Шейпершифера, моряк отправляется в царство Эрис, кишащее ужасными монстрами, такими как гигантские скорпионы, змеи и 40-футовые птицы, сделанные из льда и снега.

Даже если Синдбад сможет обезвредить всех этих чудовищ, ему также придется иметь дело с магией Эрис, обладающей эффектом Яблока Раздора, которое имеет способность превратить друзей во врагов, когда оно брошено посреди них. Синдбаду помогает во всем Марина, подруга Протеуса.

Страна: США
Студия: DreamWorks Animation, Stardust Pictures
Продолжительность: 01:25:06
Перевод: Профессиональный (дублированный)

Файл
Кодек: XviD / MP3
Качество: HDTVRip
Видео: XviD, 688x384 (16:9), 23.976 fps, 1 090 Kbps (0.172 bit/pixel)
Звук: MP3, 48.0 KHz, 2 ch, 128 Kbps, CBR

General
Complete name : E:Sinbad.Legend.of.the.Seven.Seas_[Rutor.org].avi
Format : AVI
Format/Info : Audio Video Interleave
File size : 747 MiB
Duration : 1h 25mn
Overall bit rate : 1 227 Kbps
Writing application : VirtualDubMod 1.5.10.2 (build 2540/release)
Writing library : VirtualDubMod build 2540/release

Video
ID : 0
Format : MPEG-4 Visual
Format profile : Advanced Simple@L5
Format settings, BVOP : 1
Format settings, QPel : No
Format settings, GMC : No warppoints
Format settings, Matrix : Default (MPEG)
Codec ID : XVID
Codec ID/Hint : XviD
Duration : 1h 25mn
Bit rate : 1 090 Kbps
Width : 688 pixels
Height : 384 pixels
Display aspect ratio : 16:9
Frame rate : 23.976 fps
Color space : YUV
Chroma subsampling : 4:2:0
Bit depth : 8 bits
Scan type : Progressive
Compression mode : Lossy
Bits/(Pixel*Frame) : 0.172
Stream size : 663 MiB (89%)
Writing library : XviD 1.2.0.dev47 (UTC 2006-11-01)

Audio
ID : 1
Format : MPEG Audio
Format version : Version 1
Format profile : Layer 3
Codec ID : 55
Codec ID/Hint : MP3
Duration : 1h 25mn
Bit rate mode : Constant
Bit rate : 128 Kbps
Channel(s) : 2 channels
Sampling rate : 48.0 KHz
Compression mode : Lossy
Stream size : 77.9 MiB (10%)
Alignment : Aligned on interleaves
Interleave, duration : 42 ms (1.00 video frame)
Interleave, preload duration : 504 ms
Writing library : LAME3.97
Encoding settings : -m s -V 4 -q 2 -lowpass 17 -b 128




   Похожие торренты   Торрент   Размер 
В этой теме нет новых непрочитанных сообщений. Синдбад: Легенда Семи Морей / Sinbad: Legend of the Seven Seas (2003) PC

55 | 3

374.07 МБ

В этой теме нет новых непрочитанных сообщений. Синдбад: Легенда семи морей / Sinbad: Legend of the Seven Seas (2003) DVD9

14 | 4

7.64 ГБ

В этой теме нет новых непрочитанных сообщений. Синдбад: Легенда семи морей / Sinbad: Legend of the Seven Seas (2003) DVDRip-AVC

209 | 21

1.46 ГБ

В этой теме нет новых непрочитанных сообщений. Синдбад: Легенда семи морей / Sinbad: Legend of the Seven Seas (2003) WEB-DL 720p | D, P

348 | 39

3.71 ГБ

В этой теме нет новых непрочитанных сообщений. Синдбад: Легенда семи морей / Sinbad: Legend Of Seven Seas (2003) HDTV

59 | 11

5.51 ГБ

В этой теме нет новых непрочитанных сообщений. Синдбад: Легенда семи морей / Sinbad: Legend of the Seven Seas (2003) WEBRip 1080p | D, P, A

0 | 0

4.71 ГБ

В этой теме нет новых непрочитанных сообщений. Синдбад: Легенда семи морей / Sinbad of the Seven Seas (1989) BDRip-AVC

27 | 16

2.8 ГБ




Вы не можете начинать темы
Вы не можете отвечать на сообщения
Вы не можете редактировать свои сообщения
Вы не можете удалять свои сообщения
Вы не можете добавлять вложения

Перейти:  
Для Мосгорсуда, Роскомнадзора и рекламодателей: mosgorsud-torrent[собачка]yandex.ru
 Вход
ppkBB3cker v.2 © 2008-2014 @ PPK
[ Time : 0.024s | 16 Queries | GZIP : Off ]

Торрент трекер RUTOR.IN, Не можете зайти на rutor.org? Какой новый адрес рутор? Какое зеркало рутор? Не работает rutor.org и зеркала? Тогда наш торрент специально для вас. Rutor.in неофициальное зеркало rutor. В случае если у Вас заблокирован rutor или вдруг Вы не можете на него зайти, то Вы без труда сможете скачать бесплатно и без рекламы последние новинки кино, игр, сериалов и прочего у нас, на Rutor.in. Не нужно использовать прокси, чтобы зайти на рутор, достаточно воспользоваться нашим ресурсом. Все новые фильмы, игры, сериалы, книги и музыка за 2013 и 2014 годы через торрент бесплатно. Скачивайте фильмы в хорошем качестве, игры для пк, xbox, playstation без регистрации. У нас вы найдете новые Зарубежные сериалы и Русские сериалы 2013, 2014, 2015 годов. Оставайтесь с нами, качайте любимые фильмы, игры, сериалы, книги и музыку.