img image001 image001 image001 image001 image001 image001 image001 image001 image001 image001 image001 image001 image001 image001 image001

Planets Sun Sun Sun
Статистика раздачи
Автор: Снежана | Размер: 6.28 ГБ | Добавлен: 27 июл 2013
Раздают: 4    Качают: 4
Скачать торрент
Скачать торрент
Описание торрента

СообщениеДобавлено: 27 июл 2013 

#77

Информация о фильме
Название: Лис и пес 1-2
Оригинальное название: The Fox and the Hound 1-2
Год выхода: 1981-2006
Жанр: Мультфильм, семейный
Режиссер: Тед Берман, Ричард Рич, Арт Стивенс, Эрик Кануэль
В ролях: Микки Руни, Курт Рассел, Перл Бэйли, Джек Альбертсон, Сэнди Дункан, Жанетт Нолан, Пэт Баттрем, Джон Фидлер, Джон МакИнтайр, Ричард Бакалян

О фильме:
Лис и охотничий пес: Очаровательная мультипликация, снятая по книжке Лэниела П. Манникса на студии Уолта Диснея. Когда семья фермера берет на воспитание лисенка Тода, похожего на щенка, он быстро находит общий язык с милым и смешным охотничьим щенком Коппером. Жизнь полна невероятных приключений до тех пор, пока от Коппера не начинают требовать войти в свою роль охотничьей собаки, а объектом охоты становится его лучший друг.
Лис и охотничий пес 2: Приготовьтесь к кантри в новом фильме Disney - Лис и охотничий пес 2. Музыка современных звезд играет играет главную роль в этой классической сказке о дружбе и верности, Тод и Копер все еще как ниточка и иголочка, но когда у Коппера появляется шанс попасть в супер группу, их дружба подвергается испытанию. Это невероятное приключение стоит посмотреть, ведь его озвучивают голоса таких талантов как Патрик Суэйзи, Реба Макинтайер и Джека Фоксвотри. А музыку написали Триша Ервую и Лукас Грабе.

+ бонус (фильм о фильме) и короткометражный мульт (всё переведено русскими субтитрами)

Страна: США
Студия: Walt Disney Pictures
Продолжительность: 01:22:54 , 01:09:19 , бонус 00:22:13
Перевод: Профессиональный закадровый + Дубляж(отд) + Французская и Английская дорожка(отд)

Файл
Кодек: Н.264
Качество: BDRip 720p
Видео:
1)1200x720 , 3130Кбит/сек , 23,976кадр/сек , 0.151 bit/pixel (первый)
2)1280x720 , 3870Кбит/сек , 23,976кадр/сек , 0.175 bit/pixel (второй)
3)720x544 , 2635Кбит/сек , 25,000кадр/сек , 0.269 bit/pixel (бонус)
Звук: Русский Dub[AC3, 2 ch, 192 Кбит/с], Русский MVO[AC3, 6 ch, 640 Кбит/с], Английский [AC3, 6 ch, 640 Кбит/с], Французский [AC3, 6 ch, 640 Кбит/с]
Субтитры: Русские , Французские

Семпл 1
Семпл 2

Общее
Уникальный идентификатор : 198919200725874941811989671620844543186 (0x95A671CC01DBE6D3BA6A169BCAA55CD2)
Полное имя : D:торрентЛис и Пёс.1981.2006.BDRip720pLis.i.pes.1981.н264.BDRip720p.mkv
Формат : Matroska
Версия формата : Version 2
Размер файла : 2,19 Гбайт
Продолжительность : 1 ч. 22 м.
Общий поток : 3775 Кбит/сек
Дата кодирования : UTC 2011-08-19 06:09:12
Программа кодирования : mkvmerge v4.9.1 ('Ich will') built on Jul 11 2011 23:53:15
Библиотека кодирования : libebml v1.2.1 + libmatroska v1.1.1

Видео
Идентификатор : 1
Формат : AVC
Формат/Информация : Advanced Video Codec
Профиль формата : High@L4.1
Параметр CABAC формата : Да
Параметр ReFrames формата : 9 кадров
Параметры GOP формата : M=1, N=47
Идентификатор кодека : V_MPEG4/ISO/AVC
Продолжительность : 1 ч. 22 м.
Битрейт : 3130 Кбит/сек
Ширина : 1200 пикс.
Высота : 720 пикс.
Соотношение сторон : 1,667
Частота кадров : 23,976 кадр/сек
Цветовое пространство : YUV
Подвыборка цветности : 4:2:0
Битовая глубина : 8 бит
Тип развёртки : Прогрессивная
Бит/(Пиксели*Кадры) : 0.151
Размер потока : 1,77 Гбайт (81%)
Библиотека кодирования : x264 core 116 r2057 0ba8a9c
Настройки программы : cabac=1 / ref=9 / deblock=1:1:1 / analyse=0x3:0x113 / me=umh / subme=9 / psy=1 / psy_rd=0.40:0.00 / mixed_ref=1 / me_range=32 / chroma_me=1 / trellis=1 / 8x8dct=1 / cqm=0 / deadzone=21,11 / fast_pskip=0 / chroma_qp_offset=-2 / threads=6 / sliced_threads=0 / nr=0 / decimate=1 / interlaced=0 / bluray_compat=0 / constrained_intra=0 / bframes=6 / b_pyramid=2 / b_adapt=2 / b_bias=0 / direct=3 / weightb=1 / open_gop=0 / weightp=2 / keyint=250 / keyint_min=23 / scenecut=40 / intra_refresh=0 / rc_lookahead=50 / rc=2pass / mbtree=1 / bitrate=3130 / ratetol=1.0 / qcomp=0.60 / qpmin=0 / qpmax=69 / qpstep=4 / cplxblur=20.0 / qblur=0.5 / ip_ratio=1.40 / aq=1:0.60
Язык : English

Аудио
Идентификатор : 2
Формат : AC-3
Формат/Информация : Audio Coding 3
Расширение режима : CM (complete main)
Идентификатор кодека : A_AC3
Продолжительность : 1 ч. 22 м.
Вид битрейта : Постоянный
Битрейт : 640 Кбит/сек
Каналы : 6 каналов
Расположение каналов : Front: L C R, Side: L R, LFE
Частота : 48,0 КГц
Битовая глубина : 16 бит
Метод сжатия : С потерями
Размер потока : 380 Мбайт (17%)
Язык : Russian

Текст #1
Идентификатор : 3
Формат : VobSub
Режим смешивания : zlib
Идентификатор кодека : S_VOBSUB
Идентификатор кодека/Информация : The same subtitle format used on DVDs
Язык : Russian

Текст #2
Идентификатор : 4
Формат : VobSub
Режим смешивания : zlib
Идентификатор кодека : S_VOBSUB
Идентификатор кодека/Информация : The same subtitle format used on DVDs
Язык : French

Меню
00:00:00.000 : en:00:00:00.000
00:04:32.564 : en:00:04:32.564
00:07:46.591 : en:00:07:46.591
00:10:02.560 : en:00:10:02.560
00:11:32.400 : en:00:11:32.400
00:17:46.107 : en:00:17:46.107
00:18:51.047 : en:00:18:51.047
00:23:06.343 : en:00:23:06.343
00:27:44.288 : en:00:27:44.288
00:30:40.756 : en:00:30:40.756
00:37:55.857 : en:00:37:55.857
00:43:20.223 : en:00:43:20.223
00:48:16.310 : en:00:48:16.310
00:50:46.752 : en:00:50:46.752
00:57:51.051 : en:00:57:51.051
01:01:28.685 : en:01:01:28.685
01:05:01.272 : en:01:05:01.272
01:08:27.854 : en:01:08:27.854
01:13:56.390 : en:01:13:56.390
01:17:05.871 : en:01:17:05.871

Общее
Уникальный идентификатор : 240062656547729912771783450259775471713 (0xB49A62C8DD32544880E31659AE46C061)
Полное имя : D:торрентЛис и Пёс.1981.2006.BDRip720pLis.i.pes.2.2006.н264.BDRip720p.mkv
Формат : Matroska
Версия формата : Version 2
Размер файла : 2,18 Гбайт
Продолжительность : 1 ч. 9 м.
Общий поток : 4511 Кбит/сек
Дата кодирования : UTC 2011-08-19 09:58:03
Программа кодирования : mkvmerge v4.9.1 ('Ich will') built on Jul 11 2011 23:53:15
Библиотека кодирования : libebml v1.2.1 + libmatroska v1.1.1

Видео
Идентификатор : 1
Формат : AVC
Формат/Информация : Advanced Video Codec
Профиль формата : High@L4.1
Параметр CABAC формата : Да
Параметр ReFrames формата : 9 кадров
Идентификатор кодека : V_MPEG4/ISO/AVC
Продолжительность : 1 ч. 9 м.
Битрейт : 3870 Кбит/сек
Ширина : 1280 пикс.
Высота : 720 пикс.
Соотношение сторон : 16:9
Частота кадров : 23,976 кадр/сек
Цветовое пространство : YUV
Подвыборка цветности : 4:2:0
Битовая глубина : 8 бит
Тип развёртки : Прогрессивная
Бит/(Пиксели*Кадры) : 0.175
Размер потока : 1,83 Гбайт (84%)
Библиотека кодирования : x264 core 116 r2057 0ba8a9c
Настройки программы : cabac=1 / ref=9 / deblock=1:1:1 / analyse=0x3:0x113 / me=umh / subme=9 / psy=1 / psy_rd=0.40:0.00 / mixed_ref=1 / me_range=32 / chroma_me=1 / trellis=1 / 8x8dct=1 / cqm=0 / deadzone=21,11 / fast_pskip=0 / chroma_qp_offset=-2 / threads=6 / sliced_threads=0 / nr=0 / decimate=1 / interlaced=0 / bluray_compat=0 / constrained_intra=0 / bframes=6 / b_pyramid=2 / b_adapt=2 / b_bias=0 / direct=3 / weightb=1 / open_gop=0 / weightp=2 / keyint=250 / keyint_min=23 / scenecut=40 / intra_refresh=0 / rc_lookahead=50 / rc=2pass / mbtree=1 / bitrate=3870 / ratetol=1.0 / qcomp=0.60 / qpmin=0 / qpmax=69 / qpstep=4 / cplxblur=20.0 / qblur=0.5 / ip_ratio=1.40 / aq=1:0.60
Язык : English

Аудио
Идентификатор : 2
Формат : AC-3
Формат/Информация : Audio Coding 3
Расширение режима : CM (complete main)
Идентификатор кодека : A_AC3
Продолжительность : 1 ч. 9 м.
Вид битрейта : Постоянный
Битрейт : 640 Кбит/сек
Каналы : 6 каналов
Расположение каналов : Front: L C R, Side: L R, LFE
Частота : 48,0 КГц
Битовая глубина : 16 бит
Метод сжатия : С потерями
Размер потока : 317 Мбайт (14%)
Язык : Russian

Меню
00:00:00.000 : en:00:00:00.000
00:04:52.083 : en:00:04:52.083
00:10:43.726 : en:00:10:43.726
00:18:02.999 : en:00:18:02.999
00:21:52.937 : en:00:21:52.937
00:25:36.076 : en:00:25:36.076
00:29:21.051 : en:00:29:21.051
00:34:56.636 : en:00:34:56.636
00:39:54.392 : en:00:39:54.392
00:46:00.549 : en:00:46:00.549
00:50:49.630 : en:00:50:49.630
01:01:05.203 : en:01:01:05.203

Общее
Уникальный идентификатор : 240678292932136584213676255773447378593 (0xB510F40078CDC55BA6BA50904CD756A1)
Полное имя : D:торрентЛис и Пёс.1981.2006.BDRip720pBonus.o.filme.i.mult.mkv
Формат : Matroska
Версия формата : Version 2
Размер файла : 451 Мбайт
Продолжительность : 22 м.
Общий поток : 2837 Кбит/сек
Дата кодирования : UTC 2011-08-19 09:59:01
Программа кодирования : mkvmerge v4.9.1 ('Ich will') built on Jul 11 2011 23:53:15
Библиотека кодирования : libebml v1.2.1 + libmatroska v1.1.1

Видео
Идентификатор : 1
Формат : AVC
Формат/Информация : Advanced Video Codec
Профиль формата : High@L4.1
Параметр CABAC формата : Да
Параметр ReFrames формата : 10 кадров
Параметры GOP формата : M=1, N=51
Идентификатор кодека : V_MPEG4/ISO/AVC
Продолжительность : 22 м.
Битрейт : 2635 Кбит/сек
Ширина : 720 пикс.
Высота : 544 пикс.
Соотношение сторон : 4:3
Частота кадров : 25,000 кадр/сек
Цветовое пространство : YUV
Подвыборка цветности : 4:2:0
Битовая глубина : 8 бит
Тип развёртки : Прогрессивная
Бит/(Пиксели*Кадры) : 0.269
Размер потока : 411 Мбайт (91%)
Библиотека кодирования : x264 core 116 r2057 0ba8a9c
Настройки программы : cabac=1 / ref=10 / deblock=1:1:1 / analyse=0x3:0x113 / me=umh / subme=9 / psy=1 / psy_rd=0.40:0.00 / mixed_ref=1 / me_range=32 / chroma_me=1 / trellis=1 / 8x8dct=1 / cqm=0 / deadzone=21,11 / fast_pskip=0 / chroma_qp_offset=-2 / threads=6 / sliced_threads=0 / nr=0 / decimate=1 / interlaced=0 / bluray_compat=0 / constrained_intra=0 / bframes=6 / b_pyramid=2 / b_adapt=2 / b_bias=0 / direct=3 / weightb=1 / open_gop=0 / weightp=2 / keyint=250 / keyint_min=25 / scenecut=40 / intra_refresh=0 / rc_lookahead=50 / rc=2pass / mbtree=1 / bitrate=2635 / ratetol=1.0 / qcomp=0.60 / qpmin=0 / qpmax=69 / qpstep=4 / cplxblur=20.0 / qblur=0.5 / ip_ratio=1.40 / aq=1:0.60
Язык : English

Аудио
Идентификатор : 2
Формат : AC-3
Формат/Информация : Audio Coding 3
Расширение режима : CM (complete main)
Идентификатор кодека : A_AC3
Продолжительность : 22 м.
Вид битрейта : Постоянный
Битрейт : 192 Кбит/сек
Каналы : 2 канала
Расположение каналов : Front: L R
Частота : 48,0 КГц
Битовая глубина : 16 бит
Метод сжатия : С потерями
Размер потока : 30,5 Мбайт (7%)
Язык : English

Текст
Идентификатор : 3
Формат : PGS
Режим смешивания : zlib
Идентификатор кодека : S_HDMV/PGS
Идентификатор кодека/Информация : The same subtitle format used on BDs/HD-DVDs
Язык : Russian

Меню
00:00:00.000 : en:00:00:00.000
00:07:59.960 : en:00:07:59.960
00:15:49.800 : en:00:15:49.800





Релиз от:



   Похожие торренты   Торрент   Размер 
В этой теме нет новых непрочитанных сообщений. Лис и пёс: Дилогия / The Fox and the Hound I & II (1981-2006) 1080p BDRip

7 | 6

8.74 ГБ

В этой теме нет новых непрочитанных сообщений. Лис и охотничий пес 1-2 / The Fox and the Hound 1-2 (1981-2006) DVDRip от KINOREAKTOR

60 | 3

3.14 ГБ

В этой теме нет новых непрочитанных сообщений. Лис и пес / The Fox and the Hound (1981) BDRip от HQCLUB

108 | 14

1.45 ГБ

В этой теме нет новых непрочитанных сообщений. Лис и пес / The Fox and the Hound (1981) BDRip 1080p от HD Club

3 | 2

13.48 ГБ

В этой теме нет новых непрочитанных сообщений. Лис и пес / The Fox and the Hound (1981) BDRip-AVC от Gold Cartoon KINOREAKTOR (Sheikn)

4 | 3

3.23 ГБ

В этой теме нет новых непрочитанных сообщений. Лис и пес 2 / The Fox and the Hound 2 (2006) BDRip от HQCLUB

58 | 8

1.09 ГБ

В этой теме нет новых непрочитанных сообщений. Лис и охотничий пес / The Fox and the Hound (1981) HDTVRip-AVC 720р

42 | 7

2.05 ГБ




Вы не можете начинать темы
Вы не можете отвечать на сообщения
Вы не можете редактировать свои сообщения
Вы не можете удалять свои сообщения
Вы не можете добавлять вложения

Перейти:  
Для Мосгорсуда, Роскомнадзора и рекламодателей: mosgorsud-torrent[собачка]yandex.ru
 Вход
ppkBB3cker v.2 © 2008-2014 @ PPK
[ Time : 0.054s | 15 Queries | GZIP : Off ]

Торрент трекер RUTOR.IN, Не можете зайти на rutor.org? Какой новый адрес рутор? Какое зеркало рутор? Не работает rutor.org и зеркала? Тогда наш торрент специально для вас. Rutor.in неофициальное зеркало rutor. В случае если у Вас заблокирован rutor или вдруг Вы не можете на него зайти, то Вы без труда сможете скачать бесплатно и без рекламы последние новинки кино, игр, сериалов и прочего у нас, на Rutor.in. Не нужно использовать прокси, чтобы зайти на рутор, достаточно воспользоваться нашим ресурсом. Все новые фильмы, игры, сериалы, книги и музыка за 2013 и 2014 годы через торрент бесплатно. Скачивайте фильмы в хорошем качестве, игры для пк, xbox, playstation без регистрации. У нас вы найдете новые Зарубежные сериалы и Русские сериалы 2013, 2014, 2015 годов. Оставайтесь с нами, качайте любимые фильмы, игры, сериалы, книги и музыку.